Альпы с высоты: Северные Альпы / Die Alpen von oben: Nordalpen (Лиза Эдер / Lisa Eder, Кристиан Шидловски / Christian Schidlowski) [2011, Документальный, Blu-ray Disc 1080i (Custom)]

 
Автор Сообщение

TorrentFilm ®

Пол:

Стаж: 2 года

Сообщений: 7741



Награды: Нет

Торрент-статистика

Создавать темы 05-Июл-2015 00:10

[Цитировать]

Альпы с высоты: Северные Альпы / Die Alpen von oben: Nordalpen
-Год выпуска: 2011
Страна: Германия
Жанр: Документальный
Продолжительность: 5х ~ 00:52:00
Перевод: Профессиональный (двухголосый закадровый)
Доп. инфо о переводе: ТК "Телепутешествие"
Режиссер: Лиза Эдер / Lisa Eder, Кристиан Шидловски / Christian Schidlowski и др.
Русские субтитры: нет-Описание: В этом выпуске Значимых гор Европы: Альпы, с новой точки зрения. Уникальные кадры представят вам Альпы так, как у вас не получиться их увидеть.-Список серий:
1. От Зальцбурга, к Кенигзее
2. От Кенигзее в Изарталь
3. От Изарталь в долину реки Инн
4. От Миттенвальд в Альгау
5. От Альгау в Монтафон-Тип релиза: Blu-ray Disc
Контейнер: BDMV
Видео: MPEG-4 AVC Video / 20920 kbps / 1080i / 25 fps / 16:9 / High Profile 4.1
Аудио 1: Russian / Dolby Digital Audio / 2.0 / 48 kHz / 192 kbps / DN -4dB
Аудио 2: German / DTS-HD Master Audio / 2.0 / 48 kHz / 1723 kbps / 16-bit (DTS Core: 2.0 / 48 kHz / 1509 kbps / 16-bit)
Субтитры: нет-Сэмпл-Релиз: -

BDInfo

Disc Title: DIE_ALPEN_VON_OBEN_DIE_NORDALPEN_2011_HDCLUBDisc Size: 47 729 973 449 bytesProtection: AACSBD-Java: NoExtras: 50Hz ContentBDInfo: 0.5.8
Notes:
BDINFO HOME: Cinema Squid http://www.cinemasquid.com/blu-ray/tools/bdinfo
INCLUDES FORUMS REPORT FOR: AVS Forum Blu-ray Audio and Video Specifications Thread http://www.avsforum.com/avs-vb/showthread.php?t=1155731
********************PLAYLIST: 01003.MPLS********************
Total   Video
Title                                                           Codec   Length  Movie Size      Disc Size       Bitrate Bitrate Main Audio Track                          Secondary Audio Track
-----                                                           ------  ------- --------------  --------------  ------- ------- ------------------                        ---------------------
01003.MPLS                                                      AVC     0:52:06 9 452 845 056   47 729 973 449  24,18   20,92   DD AC3 2.0 192Kbps
DISC INFO:
Disc Title:     DIE_ALPEN_VON_OBEN_DIE_NORDALPEN_2011_HDCLUB
Disc Size:      47 729 973 449 bytes
Protection:     AACS
BD-Java:        No
Extras:         50Hz Content
BDInfo:         0.5.8
PLAYLIST REPORT:
Name:                   01003.MPLS
Length:                 0:52:06.920 (h:m:s.ms)
Size:                   9 452 845 056 bytes
Total Bitrate:          24,18 Mbps
VIDEO:
Codec                   Bitrate             Description
-----                   -------             -----------
MPEG-4 AVC Video        20920 kbps          1080i / 25 fps / 16:9 / High Profile 4.1
AUDIO:
Codec                           Language        Bitrate         Description
-----                           --------        -------         -----------
Dolby Digital Audio             Russian         192 kbps        2.0 / 48 kHz / 192 kbps / DN -4dB
DTS-HD Master Audio             German          1723 kbps       2.0 / 48 kHz / 1723 kbps / 16-bit (DTS Core: 2.0 / 48 kHz / 1509 kbps / 16-bit)
FILES:
Name            Time In         Length          Size            Total Bitrate
----            -------         ------          ----            -------------
00003.M2TS      0:00:00.000     0:52:05.840     9 452 574 720   24 192
00007.M2TS      0:52:05.840     0:00:01.080     270 336         2 002
CHAPTERS:
Number          Time In         Length          Avg Video Rate  Max 1-Sec Rate  Max 1-Sec Time  Max 5-Sec Rate  Max 5-Sec Time  Max 10Sec Rate  Max 10Sec Time  Avg Frame Size  Max Frame Size  Max Frame Time
------          -------         ------          --------------  --------------  --------------  --------------  --------------  --------------  --------------  --------------  --------------  --------------
1               0:00:00.000     0:01:12.440     20 457 kbps     31 179 kbps     00:00:10.879    22 916 kbps     00:00:09.279    22 280 kbps     00:00:02.280    102 286 bytes   580 783 bytes   00:00:30.480
2               0:01:12.440     0:07:14.200     20 696 kbps     34 323 kbps     00:04:57.039    24 395 kbps     00:04:56.719    22 185 kbps     00:07:44.480    103 482 bytes   1 104 054 bytes 00:01:14.000
3               0:08:26.640     0:05:55.920     20 936 kbps     30 584 kbps     00:09:09.320    23 227 kbps     00:13:19.400    22 326 kbps     00:13:14.440    104 680 bytes   622 899 bytes   00:08:41.000
4               0:14:22.560     0:07:59.880     21 004 kbps     30 116 kbps     00:19:50.200    23 240 kbps     00:21:45.200    22 112 kbps     00:18:45.560    105 020 bytes   639 806 bytes   00:21:45.360
5               0:22:22.440     0:06:46.039     20 991 kbps     29 474 kbps     00:28:32.360    23 069 kbps     00:28:06.240    22 135 kbps     00:28:07.160    104 957 bytes   629 527 bytes   00:22:36.440
6               0:29:08.480     0:05:11.039     21 008 kbps     29 108 kbps     00:34:03.560    22 689 kbps     00:33:54.960    21 956 kbps     00:32:26.200    105 040 bytes   513 017 bytes   00:32:34.280
7               0:34:19.520     0:07:06.480     20 991 kbps     29 800 kbps     00:39:47.640    23 819 kbps     00:41:03.240    22 015 kbps     00:36:58.800    104 957 bytes   696 459 bytes   00:34:22.320
8               0:41:26.000     0:04:21.000     20 993 kbps     28 170 kbps     00:43:19.440    23 080 kbps     00:42:01.240    22 052 kbps     00:42:45.240    104 966 bytes   644 732 bytes   00:41:39.280
9               0:45:47.000     0:06:18.840     20 926 kbps     39 769 kbps     00:50:53.720    25 898 kbps     00:50:52.200    24 041 kbps     00:50:47.400    104 632 bytes   591 874 bytes   00:50:07.360
10              0:52:05.840     0:00:01.079     52 kbps         56 kbps         00:52:05.840    0 kbps          00:00:00.000    0 kbps          00:00:00.000    279 bytes       784 bytes       00:52:06.440
STREAM DIAGNOSTICS:
File            PID             Type            Codec           Language                Seconds                 Bitrate                 Bytes           Packets
----            ---             ----            -----           --------                --------------          --------------          -------------   -----
00003.M2TS      4113 (0x1011)   0x1B            AVC                                     3125,720                20 928                  8 177 044 120   44 486 000
00003.M2TS      4352 (0x1100)   0x81            AC3             rus (Russian)           3125,720                192                     75 020 544      488 415
00003.M2TS      4353 (0x1101)   0x86            DTS-HD MA       deu (German)            3125,720                1 724                   673 541 064     4 136 943
00007.M2TS      4113 (0x1011)   0x1B            AVC                                     1,000                   62                      7 762           51
00007.M2TS      4352 (0x1100)   0x86            DTS-HD MA       rus (Russian)           1,000                   1 644                   205 524         1 287
QUICK SUMMARY:
Disc Title: DIE_ALPEN_VON_OBEN_DIE_NORDALPEN_2011_HDCLUBDisc Size: 47 729 973 449 bytesProtection: AACSBD-Java: NoPlaylist: 01003.MPLSSize: 9 452 845 056 bytesLength: 0:52:06.920Total Bitrate: 24,18 MbpsVideo: MPEG-4 AVC Video / 20920 kbps / 1080i / 25 fps / 16:9 / High Profile 4.1Audio: Russian / Dolby Digital Audio / 2.0 / 48 kHz / 192 kbps / DN -4dBAudio: German / DTS-HD Master Audio / 2.0 / 48 kHz / 1723 kbps / 16-bit (DTS Core: 2.0 / 48 kHz / 1509 kbps / 16-bit)
********************PLAYLIST: 00003.MPLS********************
Total   Video
Title                                                           Codec   Length  Movie Size      Disc Size       Bitrate Bitrate Main Audio Track                          Secondary Audio Track
-----                                                           ------  ------- --------------  --------------  ------- ------- ------------------                        ---------------------
00003.MPLS                                                      AVC     0:52:05 9 452 574 720   47 729 973 449  24,19   20,93   DD AC3 2.0 192Kbps
DISC INFO:
Disc Title:     DIE_ALPEN_VON_OBEN_DIE_NORDALPEN_2011_HDCLUB
Disc Size:      47 729 973 449 bytes
Protection:     AACS
BD-Java:        No
Extras:         50Hz Content
BDInfo:         0.5.8
PLAYLIST REPORT:
Name:                   00003.MPLS
Length:                 0:52:05.840 (h:m:s.ms)
Size:                   9 452 574 720 bytes
Total Bitrate:          24,19 Mbps
VIDEO:
Codec                   Bitrate             Description
-----                   -------             -----------
MPEG-4 AVC Video        20928 kbps          1080i / 25 fps / 16:9 / High Profile 4.1
AUDIO:
Codec                           Language        Bitrate         Description
-----                           --------        -------         -----------
Dolby Digital Audio             Russian         192 kbps        2.0 / 48 kHz / 192 kbps / DN -4dB
DTS-HD Master Audio             German          1724 kbps       2.0 / 48 kHz / 1724 kbps / 16-bit (DTS Core: 2.0 / 48 kHz / 1509 kbps / 16-bit)
FILES:
Name            Time In         Length          Size            Total Bitrate
----            -------         ------          ----            -------------
00003.M2TS      0:00:00.000     0:52:05.840     9 452 574 720   24 192
CHAPTERS:
Number          Time In         Length          Avg Video Rate  Max 1-Sec Rate  Max 1-Sec Time  Max 5-Sec Rate  Max 5-Sec Time  Max 10Sec Rate  Max 10Sec Time  Avg Frame Size  Max Frame Size  Max Frame Time
------          -------         ------          --------------  --------------  --------------  --------------  --------------  --------------  --------------  --------------  --------------  --------------
1               0:00:00.000     0:52:05.840     20 928 kbps     39 769 kbps     00:50:53.720    25 898 kbps     00:50:52.200    24 041 kbps     00:50:47.400    104 639 bytes   1 104 054 bytes 00:01:14.000
STREAM DIAGNOSTICS:
File            PID             Type            Codec           Language                Seconds                 Bitrate                 Bytes           Packets
----            ---             ----            -----           --------                --------------          --------------          -------------   -----
00003.M2TS      4113 (0x1011)   0x1B            AVC                                     3125,720                20 928                  8 177 044 120   44 486 000
00003.M2TS      4352 (0x1100)   0x81            AC3             rus (Russian)           3125,720                192                     75 020 544      488 415
00003.M2TS      4353 (0x1101)   0x86            DTS-HD MA       deu (German)            3125,720                1 724                   673 541 064     4 136 943
QUICK SUMMARY:
Disc Title: DIE_ALPEN_VON_OBEN_DIE_NORDALPEN_2011_HDCLUBDisc Size: 47 729 973 449 bytesProtection: AACSBD-Java: NoPlaylist: 00003.MPLSSize: 9 452 574 720 bytesLength: 0:52:05.840Total Bitrate: 24,19 MbpsVideo: MPEG-4 AVC Video / 20928 kbps / 1080i / 25 fps / 16:9 / High Profile 4.1Audio: Russian / Dolby Digital Audio / 2.0 / 48 kHz / 192 kbps / DN -4dBAudio: German / DTS-HD Master Audio / 2.0 / 48 kHz / 1724 kbps / 16-bit (DTS Core: 2.0 / 48 kHz / 1509 kbps / 16-bit)
********************PLAYLIST: 01006.MPLS********************
Total   Video
Title                                                           Codec   Length  Movie Size      Disc Size       Bitrate Bitrate Main Audio Track                          Secondary Audio Track
-----                                                           ------  ------- --------------  --------------  ------- ------- ------------------                        ---------------------
01006.MPLS                                                      AVC     0:52:05 9 447 340 032   47 729 973 449  24,18   20,91   DD AC3 2.0 192Kbps
DISC INFO:
Disc Title:     DIE_ALPEN_VON_OBEN_DIE_NORDALPEN_2011_HDCLUB
Disc Size:      47 729 973 449 bytes
Protection:     AACS
BD-Java:        No
Extras:         50Hz Content
BDInfo:         0.5.8
PLAYLIST REPORT:
Name:                   01006.MPLS
Length:                 0:52:05.520 (h:m:s.ms)
Size:                   9 447 340 032 bytes
Total Bitrate:          24,18 Mbps
VIDEO:
Codec                   Bitrate             Description
-----                   -------             -----------
MPEG-4 AVC Video        20909 kbps          1080i / 25 fps / 16:9 / High Profile 4.1
AUDIO:
Codec                           Language        Bitrate         Description
-----                           --------        -------         -----------
Dolby Digital Audio             Russian         192 kbps        2.0 / 48 kHz / 192 kbps / DN -4dB
DTS-HD Master Audio             German          1732 kbps       2.0 / 48 kHz / 1732 kbps / 16-bit (DTS Core: 2.0 / 48 kHz / 1509 kbps / 16-bit)
FILES:
Name            Time In         Length          Size            Total Bitrate
----            -------         ------          ----            -------------
00006.M2TS      0:00:00.000     0:52:04.440     9 447 069 696   24 189
00007.M2TS      0:52:04.440     0:00:01.080     270 336         2 002
CHAPTERS:
Number          Time In         Length          Avg Video Rate  Max 1-Sec Rate  Max 1-Sec Time  Max 5-Sec Rate  Max 5-Sec Time  Max 10Sec Rate  Max 10Sec Time  Avg Frame Size  Max Frame Size  Max Frame Time
------          -------         ------          --------------  --------------  --------------  --------------  --------------  --------------  --------------  --------------  --------------  --------------
1               0:00:00.000     0:01:12.520     20 452 kbps     31 846 kbps     00:01:06.959    23 662 kbps     00:01:03.240    22 349 kbps     00:00:02.280    102 261 bytes   604 552 bytes   00:00:54.040
2               0:01:12.520     0:05:29.400     20 829 kbps     31 934 kbps     00:01:13.080    23 468 kbps     00:01:12.959    22 206 kbps     00:01:37.960    104 143 bytes   1 097 635 bytes 00:01:14.080
3               0:06:41.919     0:05:35.000     20 865 kbps     31 412 kbps     00:09:52.680    23 249 kbps     00:09:52.200    22 059 kbps     00:06:45.440    104 325 bytes   612 546 bytes   00:06:54.120
4               0:12:16.920     0:05:56.879     21 004 kbps     33 128 kbps     00:16:06.800    24 553 kbps     00:16:03.120    22 672 kbps     00:16:04.760    105 020 bytes   549 601 bytes   00:14:42.520
5               0:18:13.800     0:06:01.000     21 017 kbps     30 347 kbps     00:21:58.720    23 269 kbps     00:23:32.680    21 938 kbps     00:18:45.120    105 084 bytes   584 463 bytes   00:18:13.920
6               0:24:14.800     0:05:29.360     20 989 kbps     29 794 kbps     00:28:21.880    23 146 kbps     00:27:03.560    22 056 kbps     00:27:30.760    104 947 bytes   671 250 bytes   00:24:25.720
7               0:29:44.160     0:07:52.720     20 827 kbps     33 151 kbps     00:33:24.760    23 195 kbps     00:36:42.320    22 169 kbps     00:33:24.720    104 134 bytes   584 521 bytes   00:31:19.560
8               0:37:36.880     0:05:07.719     21 004 kbps     31 223 kbps     00:38:32.600    23 132 kbps     00:38:29.320    22 074 kbps     00:41:12.280    105 021 bytes   685 403 bytes   00:37:47.960
9               0:42:44.600     0:09:19.840     20 922 kbps     31 614 kbps     00:49:58.080    24 194 kbps     00:46:24.320    22 541 kbps     00:46:19.280    104 611 bytes   625 594 bytes   00:49:53.640
10              0:52:04.440     0:00:01.079     52 kbps         56 kbps         00:52:04.440    0 kbps          00:00:00.000    0 kbps          00:00:00.000    279 bytes       784 bytes       00:52:05.040
STREAM DIAGNOSTICS:
File            PID             Type            Codec           Language                Seconds                 Bitrate                 Bytes           Packets
----            ---             ----            -----           --------                --------------          --------------          -------------   -----
00006.M2TS      4113 (0x1011)   0x1B            AVC                                     3124,320                20 917                  8 168 963 733   44 442 087
00006.M2TS      4352 (0x1100)   0x81            AC3             rus (Russian)           3124,320                192                     74 986 752      488 195
00006.M2TS      4353 (0x1101)   0x86            DTS-HD MA       deu (German)            3124,320                1 733                   676 712 296     4 152 466
00007.M2TS      4113 (0x1011)   0x1B            AVC                                     1,000                   62                      7 762           51
00007.M2TS      4352 (0x1100)   0x86            DTS-HD MA       rus (Russian)           1,000                   1 644                   205 524         1 287
QUICK SUMMARY:
Disc Title: DIE_ALPEN_VON_OBEN_DIE_NORDALPEN_2011_HDCLUBDisc Size: 47 729 973 449 bytesProtection: AACSBD-Java: NoPlaylist: 01006.MPLSSize: 9 447 340 032 bytesLength: 0:52:05.520Total Bitrate: 24,18 MbpsVideo: MPEG-4 AVC Video / 20909 kbps / 1080i / 25 fps / 16:9 / High Profile 4.1Audio: Russian / Dolby Digital Audio / 2.0 / 48 kHz / 192 kbps / DN -4dBAudio: German / DTS-HD Master Audio / 2.0 / 48 kHz / 1732 kbps / 16-bit (DTS Core: 2.0 / 48 kHz / 1509 kbps / 16-bit)
********************PLAYLIST: 00006.MPLS********************
Total   Video
Title                                                           Codec   Length  Movie Size      Disc Size       Bitrate Bitrate Main Audio Track                          Secondary Audio Track
-----                                                           ------  ------- --------------  --------------  ------- ------- ------------------                        ---------------------
00006.MPLS                                                      AVC     0:52:04 9 447 069 696   47 729 973 449  24,19   20,92   DD AC3 2.0 192Kbps
DISC INFO:
Disc Title:     DIE_ALPEN_VON_OBEN_DIE_NORDALPEN_2011_HDCLUB
Disc Size:      47 729 973 449 bytes
Protection:     AACS
BD-Java:        No
Extras:         50Hz Content
BDInfo:         0.5.8
PLAYLIST REPORT:
Name:                   00006.MPLS
Length:                 0:52:04.440 (h:m:s.ms)
Size:                   9 447 069 696 bytes
Total Bitrate:          24,19 Mbps
VIDEO:
Codec                   Bitrate             Description
-----                   -------             -----------
MPEG-4 AVC Video        20916 kbps          1080i / 25 fps / 16:9 / High Profile 4.1
AUDIO:
Codec                           Language        Bitrate         Description
-----                           --------        -------         -----------
Dolby Digital Audio             Russian         192 kbps        2.0 / 48 kHz / 192 kbps / DN -4dB
DTS-HD Master Audio             German          1733 kbps       2.0 / 48 kHz / 1733 kbps / 16-bit (DTS Core: 2.0 / 48 kHz / 1509 kbps / 16-bit)
FILES:
Name            Time In         Length          Size            Total Bitrate
----            -------         ------          ----            -------------
00006.M2TS      0:00:00.000     0:52:04.440     9 447 069 696   24 189
CHAPTERS:
Number          Time In         Length          Avg Video Rate  Max 1-Sec Rate  Max 1-Sec Time  Max 5-Sec Rate  Max 5-Sec Time  Max 10Sec Rate  Max 10Sec Time  Avg Frame Size  Max Frame Size  Max Frame Time
------          -------         ------          --------------  --------------  --------------  --------------  --------------  --------------  --------------  --------------  --------------  --------------
1               0:00:00.000     0:52:04.440     20 916 kbps     33 151 kbps     00:33:24.760    24 553 kbps     00:16:03.120    22 672 kbps     00:16:04.760    104 583 bytes   1 097 635 bytes 00:01:14.080
STREAM DIAGNOSTICS:
File            PID             Type            Codec           Language                Seconds                 Bitrate                 Bytes           Packets
----            ---             ----            -----           --------                --------------          --------------          -------------   -----
00006.M2TS      4113 (0x1011)   0x1B            AVC                                     3124,320                20 917                  8 168 963 733   44 442 087
00006.M2TS      4352 (0x1100)   0x81            AC3             rus (Russian)           3124,320                192                     74 986 752      488 195
00006.M2TS      4353 (0x1101)   0x86            DTS-HD MA       deu (German)            3124,320                1 733                   676 712 296     4 152 466
QUICK SUMMARY:
Disc Title: DIE_ALPEN_VON_OBEN_DIE_NORDALPEN_2011_HDCLUBDisc Size: 47 729 973 449 bytesProtection: AACSBD-Java: NoPlaylist: 00006.MPLSSize: 9 447 069 696 bytesLength: 0:52:04.440Total Bitrate: 24,19 MbpsVideo: MPEG-4 AVC Video / 20916 kbps / 1080i / 25 fps / 16:9 / High Profile 4.1Audio: Russian / Dolby Digital Audio / 2.0 / 48 kHz / 192 kbps / DN -4dBAudio: German / DTS-HD Master Audio / 2.0 / 48 kHz / 1733 kbps / 16-bit (DTS Core: 2.0 / 48 kHz / 1509 kbps / 16-bit)
********************PLAYLIST: 01002.MPLS********************
Total   Video
Title                                                           Codec   Length  Movie Size      Disc Size       Bitrate Bitrate Main Audio Track                          Secondary Audio Track
-----                                                           ------  ------- --------------  --------------  ------- ------- ------------------                        ---------------------
01002.MPLS                                                      AVC     0:52:00 9 437 589 504   47 729 973 449  24,20   20,93   DD AC3 2.0 192Kbps
DISC INFO:
Disc Title:     DIE_ALPEN_VON_OBEN_DIE_NORDALPEN_2011_HDCLUB
Disc Size:      47 729 973 449 bytes
Protection:     AACS
BD-Java:        No
Extras:         50Hz Content
BDInfo:         0.5.8
PLAYLIST REPORT:
Name:                   01002.MPLS
Length:                 0:52:00.160 (h:m:s.ms)
Size:                   9 437 589 504 bytes
Total Bitrate:          24,20 Mbps
VIDEO:
Codec                   Bitrate             Description
-----                   -------             -----------
MPEG-4 AVC Video        20927 kbps          1080i / 25 fps / 16:9 / High Profile 4.1
AUDIO:
Codec                           Language        Bitrate         Description
-----                           --------        -------         -----------
Dolby Digital Audio             Russian         192 kbps        2.0 / 48 kHz / 192 kbps / DN -4dB
DTS-HD Master Audio             German          1725 kbps       2.0 / 48 kHz / 1725 kbps / 16-bit (DTS Core: 2.0 / 48 kHz / 1509 kbps / 16-bit)
FILES:
Name            Time In         Length          Size            Total Bitrate
----            -------         ------          ----            -------------
00002.M2TS      0:00:00.000     0:51:59.080     9 437 319 168   24 205
00007.M2TS      0:51:59.080     0:00:01.080     270 336         2 002
CHAPTERS:
Number          Time In         Length          Avg Video Rate  Max 1-Sec Rate  Max 1-Sec Time  Max 5-Sec Rate  Max 5-Sec Time  Max 10Sec Rate  Max 10Sec Time  Avg Frame Size  Max Frame Size  Max Frame Time
------          -------         ------          --------------  --------------  --------------  --------------  --------------  --------------  --------------  --------------  --------------  --------------
1               0:00:00.000     0:01:12.600     20 466 kbps     30 855 kbps     00:00:10.879    22 991 kbps     00:00:07.319    22 344 kbps     00:00:02.280    102 331 bytes   605 139 bytes   00:00:23.760
2               0:01:12.600     0:06:11.799     21 004 kbps     30 980 kbps     00:01:15.119    23 308 kbps     00:03:53.040    22 155 kbps     00:02:56.600    105 021 bytes   1 078 588 bytes 00:01:13.240
3               0:07:24.400     0:06:03.160     20 684 kbps     34 635 kbps     00:12:57.720    23 507 kbps     00:12:37.880    22 371 kbps     00:11:21.600    103 421 bytes   599 392 bytes   00:09:42.120
4               0:13:27.560     0:05:17.439     20 979 kbps     29 215 kbps     00:18:25.640    23 492 kbps     00:15:27.000    21 994 kbps     00:13:56.480    104 895 bytes   639 930 bytes   00:14:45.320
5               0:18:45.000     0:05:24.520     21 011 kbps     31 858 kbps     00:22:38.240    23 169 kbps     00:20:45.640    22 244 kbps     00:21:33.160    105 053 bytes   640 679 bytes   00:18:54.920
6               0:24:09.520     0:06:50.680     21 005 kbps     31 442 kbps     00:30:07.480    23 289 kbps     00:25:29.400    22 057 kbps     00:25:38.040    105 027 bytes   692 407 bytes   00:24:18.840
7               0:31:00.200     0:06:12.799     20 990 kbps     30 605 kbps     00:31:37.400    23 069 kbps     00:32:20.160    22 132 kbps     00:31:04.800    104 948 bytes   633 418 bytes   00:32:37.480
8               0:37:13.000     0:07:57.000     20 997 kbps     30 333 kbps     00:40:12.640    23 238 kbps     00:40:08.720    22 113 kbps     00:39:38.400    104 987 bytes   660 586 bytes   00:37:23.120
9               0:45:10.000     0:06:49.079     20 888 kbps     30 670 kbps     00:51:03.080    23 640 kbps     00:47:51.440    22 005 kbps     00:51:20.000    104 452 bytes   563 858 bytes   00:51:54.000
10              0:51:59.080     0:00:01.079     52 kbps         56 kbps         00:51:59.080    0 kbps          00:00:00.000    0 kbps          00:00:00.000    279 bytes       784 bytes       00:51:59.680
STREAM DIAGNOSTICS:
File            PID             Type            Codec           Language                Seconds                 Bitrate                 Bytes           Packets
----            ---             ----            -----           --------                --------------          --------------          -------------   -----
00002.M2TS      4113 (0x1011)   0x1B            AVC                                     3118,960                20 936                  8 162 126 092   44 404 973
00002.M2TS      4352 (0x1100)   0x81            AC3             rus (Russian)           3118,960                192                     74 857 728      487 355
00002.M2TS      4353 (0x1101)   0x86            DTS-HD MA       deu (German)            3118,960                1 725                   672 681 280     4 139 850
00007.M2TS      4113 (0x1011)   0x1B            AVC                                     1,000                   62                      7 762           51
00007.M2TS      4352 (0x1100)   0x86            DTS-HD MA       rus (Russian)           1,000                   1 644                   205 524         1 287
QUICK SUMMARY:
Disc Title: DIE_ALPEN_VON_OBEN_DIE_NORDALPEN_2011_HDCLUBDisc Size: 47 729 973 449 bytesProtection: AACSBD-Java: NoPlaylist: 01002.MPLSSize: 9 437 589 504 bytesLength: 0:52:00.160Total Bitrate: 24,20 MbpsVideo: MPEG-4 AVC Video / 20927 kbps / 1080i / 25 fps / 16:9 / High Profile 4.1Audio: Russian / Dolby Digital Audio / 2.0 / 48 kHz / 192 kbps / DN -4dBAudio: German / DTS-HD Master Audio / 2.0 / 48 kHz / 1725 kbps / 16-bit (DTS Core: 2.0 / 48 kHz / 1509 kbps / 16-bit)
********************PLAYLIST: 00002.MPLS********************
Total   Video
Title                                                           Codec   Length  Movie Size      Disc Size       Bitrate Bitrate Main Audio Track                          Secondary Audio Track
-----                                                           ------  ------- --------------  --------------  ------- ------- ------------------                        ---------------------
00002.MPLS                                                      AVC     0:51:59 9 437 319 168   47 729 973 449  24,21   20,93   DD AC3 2.0 192Kbps
DISC INFO:
Disc Title:     DIE_ALPEN_VON_OBEN_DIE_NORDALPEN_2011_HDCLUB
Disc Size:      47 729 973 449 bytes
Protection:     AACS
BD-Java:        No
Extras:         50Hz Content
BDInfo:         0.5.8
PLAYLIST REPORT:
Name:                   00002.MPLS
Length:                 0:51:59.080 (h:m:s.ms)
Size:                   9 437 319 168 bytes
Total Bitrate:          24,21 Mbps
VIDEO:
Codec                   Bitrate             Description
-----                   -------             -----------
MPEG-4 AVC Video        20935 kbps          1080i / 25 fps / 16:9 / High Profile 4.1
AUDIO:
Codec                           Language        Bitrate         Description
-----                           --------        -------         -----------
Dolby Digital Audio             Russian         192 kbps        2.0 / 48 kHz / 192 kbps / DN -4dB
DTS-HD Master Audio             German          1725 kbps       2.0 / 48 kHz / 1725 kbps / 16-bit (DTS Core: 2.0 / 48 kHz / 1509 kbps / 16-bit)
FILES:
Name            Time In         Length          Size            Total Bitrate
----            -------         ------          ----            -------------
00002.M2TS      0:00:00.000     0:51:59.080     9 437 319 168   24 205
CHAPTERS:
Number          Time In         Length          Avg Video Rate  Max 1-Sec Rate  Max 1-Sec Time  Max 5-Sec Rate  Max 5-Sec Time  Max 10Sec Rate  Max 10Sec Time  Avg Frame Size  Max Frame Size  Max Frame Time
------          -------         ------          --------------  --------------  --------------  --------------  --------------  --------------  --------------  --------------  --------------  --------------
1               0:00:00.000     0:51:59.080     20 935 kbps     34 635 kbps     00:12:57.720    23 640 kbps     00:47:51.440    22 371 kbps     00:11:21.600    104 676 bytes   1 078 588 bytes 00:01:13.240
STREAM DIAGNOSTICS:
File            PID             Type            Codec           Language                Seconds                 Bitrate                 Bytes           Packets
----            ---             ----            -----           --------                --------------          --------------          -------------   -----
00002.M2TS      4113 (0x1011)   0x1B            AVC                                     3118,960                20 936                  8 162 126 092   44 404 973
00002.M2TS      4352 (0x1100)   0x81            AC3             rus (Russian)           3118,960                192                     74 857 728      487 355
00002.M2TS      4353 (0x1101)   0x86            DTS-HD MA       deu (German)            3118,960                1 725                   672 681 280     4 139 850
QUICK SUMMARY:
Disc Title: DIE_ALPEN_VON_OBEN_DIE_NORDALPEN_2011_HDCLUBDisc Size: 47 729 973 449 bytesProtection: AACSBD-Java: NoPlaylist: 00002.MPLSSize: 9 437 319 168 bytesLength: 0:51:59.080Total Bitrate: 24,21 MbpsVideo: MPEG-4 AVC Video / 20935 kbps / 1080i / 25 fps / 16:9 / High Profile 4.1Audio: Russian / Dolby Digital Audio / 2.0 / 48 kHz / 192 kbps / DN -4dBAudio: German / DTS-HD Master Audio / 2.0 / 48 kHz / 1725 kbps / 16-bit (DTS Core: 2.0 / 48 kHz / 1509 kbps / 16-bit)
********************PLAYLIST: 01005.MPLS********************
Total   Video
Title                                                           Codec   Length  Movie Size      Disc Size       Bitrate Bitrate Main Audio Track                          Secondary Audio Track
-----                                                           ------  ------- --------------  --------------  ------- ------- ------------------                        ---------------------
01005.MPLS                                                      AVC     0:51:44 9 361 022 976   47 729 973 449  24,12   20,86   DD AC3 2.0 192Kbps
DISC INFO:
Disc Title:     DIE_ALPEN_VON_OBEN_DIE_NORDALPEN_2011_HDCLUB
Disc Size:      47 729 973 449 bytes
Protection:     AACS
BD-Java:        No
Extras:         50Hz Content
BDInfo:         0.5.8
PLAYLIST REPORT:
Name:                   01005.MPLS
Length:                 0:51:44.400 (h:m:s.ms)
Size:                   9 361 022 976 bytes
Total Bitrate:          24,12 Mbps
VIDEO:
Codec                   Bitrate             Description
-----                   -------             -----------
MPEG-4 AVC Video        20856 kbps          1080i / 25 fps / 16:9 / High Profile 4.1
AUDIO:
Codec                           Language        Bitrate         Description
-----                           --------        -------         -----------
Dolby Digital Audio             Russian         192 kbps        2.0 / 48 kHz / 192 kbps / DN -4dB
DTS-HD Master Audio             German          1725 kbps       2.0 / 48 kHz / 1725 kbps / 16-bit (DTS Core: 2.0 / 48 kHz / 1509 kbps / 16-bit)
FILES:
Name            Time In         Length          Size            Total Bitrate
----            -------         ------          ----            -------------
00005.M2TS      0:00:00.000     0:51:43.320     9 360 752 640   24 131
00007.M2TS      0:51:43.320     0:00:01.080     270 336         2 002
CHAPTERS:
Number          Time In         Length          Avg Video Rate  Max 1-Sec Rate  Max 1-Sec Time  Max 5-Sec Rate  Max 5-Sec Time  Max 10Sec Rate  Max 10Sec Time  Avg Frame Size  Max Frame Size  Max Frame Time
------          -------         ------          --------------  --------------  --------------  --------------  --------------  --------------  --------------  --------------  --------------  --------------
1               0:00:00.000     0:01:11.880     20 407 kbps     32 185 kbps     00:00:54.200    23 461 kbps     00:00:50.280    22 297 kbps     00:00:46.560    102 033 bytes   614 376 bytes   00:00:39.720
2               0:01:11.880     0:05:58.880     21 004 kbps     30 049 kbps     00:05:27.799    23 561 kbps     00:01:12.360    22 019 kbps     00:05:38.240    105 020 bytes   925 856 bytes   00:01:14.440
3               0:07:10.760     0:06:28.040     20 997 kbps     33 687 kbps     00:12:49.040    23 779 kbps     00:11:57.440    22 199 kbps     00:11:43.840    104 986 bytes   657 633 bytes   00:13:30.720
4               0:13:38.800     0:05:35.199     20 985 kbps     31 287 kbps     00:18:16.400    23 505 kbps     00:18:27.160    22 382 kbps     00:18:24.200    104 927 bytes   645 779 bytes   00:13:52.560
5               0:19:14.000     0:06:36.000     21 004 kbps     30 864 kbps     00:25:03.480    23 177 kbps     00:19:42.080    22 271 kbps     00:23:51.840    105 020 bytes   672 858 bytes   00:19:25.040
6               0:25:50.000     0:06:26.160     20 718 kbps     32 052 kbps     00:31:27.760    23 626 kbps     00:31:34.920    22 449 kbps     00:31:27.960    103 588 bytes   687 590 bytes   00:29:34.120
7               0:32:16.160     0:06:36.439     20 543 kbps     34 652 kbps     00:35:26.960    23 593 kbps     00:36:30.240    22 251 kbps     00:36:25.320    102 714 bytes   634 272 bytes   00:32:26.280
8               0:38:52.600     0:06:11.880     20 890 kbps     31 772 kbps     00:43:25.240    23 689 kbps     00:42:14.000    22 406 kbps     00:40:28.160    104 448 bytes   702 017 bytes   00:39:00.240
9               0:45:04.480     0:06:38.840     20 882 kbps     29 008 kbps     00:47:34.600    23 208 kbps     00:48:05.760    22 047 kbps     00:49:33.160    104 409 bytes   591 903 bytes   00:45:52.160
10              0:51:43.320     0:00:01.079     52 kbps         56 kbps         00:51:43.320    0 kbps          00:00:00.000    0 kbps          00:00:00.000    279 bytes       784 bytes       00:51:43.920
STREAM DIAGNOSTICS:
File            PID             Type            Codec           Language                Seconds                 Bitrate                 Bytes           Packets
----            ---             ----            -----           --------                --------------          --------------          -------------   -----
00005.M2TS      4113 (0x1011)   0x1B            AVC                                     3103,200                20 864                  8 093 187 903   44 030 028
00005.M2TS      4352 (0x1100)   0x81            AC3             rus (Russian)           3103,200                192                     74 479 872      484 895
00005.M2TS      4353 (0x1101)   0x86            DTS-HD MA       deu (German)            3103,200                1 725                   669 208 632     4 119 075
00007.M2TS      4113 (0x1011)   0x1B            AVC                                     1,000                   62                      7 762           51
00007.M2TS      4352 (0x1100)   0x86            DTS-HD MA       rus (Russian)           1,000                   1 644                   205 524         1 287
QUICK SUMMARY:
Disc Title: DIE_ALPEN_VON_OBEN_DIE_NORDALPEN_2011_HDCLUBDisc Size: 47 729 973 449 bytesProtection: AACSBD-Java: NoPlaylist: 01005.MPLSSize: 9 361 022 976 bytesLength: 0:51:44.400Total Bitrate: 24,12 MbpsVideo: MPEG-4 AVC Video / 20856 kbps / 1080i / 25 fps / 16:9 / High Profile 4.1Audio: Russian / Dolby Digital Audio / 2.0 / 48 kHz / 192 kbps / DN -4dBAudio: German / DTS-HD Master Audio / 2.0 / 48 kHz / 1725 kbps / 16-bit (DTS Core: 2.0 / 48 kHz / 1509 kbps / 16-bit)
********************PLAYLIST: 00005.MPLS********************
Total   Video
Title                                                           Codec   Length  Movie Size      Disc Size       Bitrate Bitrate Main Audio Track                          Secondary Audio Track
-----                                                           ------  ------- --------------  --------------  ------- ------- ------------------                        ---------------------
00005.MPLS                                                      AVC     0:51:43 9 360 752 640   47 729 973 449  24,13   20,86   DD AC3 2.0 192Kbps
DISC INFO:
Disc Title:     DIE_ALPEN_VON_OBEN_DIE_NORDALPEN_2011_HDCLUB
Disc Size:      47 729 973 449 bytes
Protection:     AACS
BD-Java:        No
Extras:         50Hz Content
BDInfo:         0.5.8
PLAYLIST REPORT:
Name:                   00005.MPLS
Length:                 0:51:43.320 (h:m:s.ms)
Size:                   9 360 752 640 bytes
Total Bitrate:          24,13 Mbps
VIDEO:
Codec                   Bitrate             Description
-----                   -------             -----------
MPEG-4 AVC Video        20863 kbps          1080i / 25 fps / 16:9 / High Profile 4.1
AUDIO:
Codec                           Language        Bitrate         Description
-----                           --------        -------         -----------
Dolby Digital Audio             Russian         192 kbps        2.0 / 48 kHz / 192 kbps / DN -4dB
DTS-HD Master Audio             German          1725 kbps       2.0 / 48 kHz / 1725 kbps / 16-bit (DTS Core: 2.0 / 48 kHz / 1509 kbps / 16-bit)
FILES:
Name            Time In         Length          Size            Total Bitrate
----            -------         ------          ----            -------------
00005.M2TS      0:00:00.000     0:51:43.320     9 360 752 640   24 131
CHAPTERS:
Number          Time In         Length          Avg Video Rate  Max 1-Sec Rate  Max 1-Sec Time  Max 5-Sec Rate  Max 5-Sec Time  Max 10Sec Rate  Max 10Sec Time  Avg Frame Size  Max Frame Size  Max Frame Time
------          -------         ------          --------------  --------------  --------------  --------------  --------------  --------------  --------------  --------------  --------------  --------------
1               0:00:00.000     0:51:43.320     20 863 kbps     34 652 kbps     00:35:26.960    23 779 kbps     00:11:57.440    22 449 kbps     00:31:27.960    104 318 bytes   925 856 bytes   00:01:14.440
STREAM DIAGNOSTICS:
File            PID             Type            Codec           Language                Seconds                 Bitrate                 Bytes           Packets
----            ---             ----            -----           --------                --------------          --------------          -------------   -----
00005.M2TS      4113 (0x1011)   0x1B            AVC                                     3103,200                20 864                  8 093 187 903   44 030 028
00005.M2TS      4352 (0x1100)   0x81            AC3             rus (Russian)           3103,200                192                     74 479 872      484 895
00005.M2TS      4353 (0x1101)   0x86            DTS-HD MA       deu (German)            3103,200                1 725                   669 208 632     4 119 075
QUICK SUMMARY:
Disc Title: DIE_ALPEN_VON_OBEN_DIE_NORDALPEN_2011_HDCLUBDisc Size: 47 729 973 449 bytesProtection: AACSBD-Java: NoPlaylist: 00005.MPLSSize: 9 360 752 640 bytesLength: 0:51:43.320Total Bitrate: 24,13 MbpsVideo: MPEG-4 AVC Video / 20863 kbps / 1080i / 25 fps / 16:9 / High Profile 4.1Audio: Russian / Dolby Digital Audio / 2.0 / 48 kHz / 192 kbps / DN -4dBAudio: German / DTS-HD Master Audio / 2.0 / 48 kHz / 1725 kbps / 16-bit (DTS Core: 2.0 / 48 kHz / 1509 kbps / 16-bit)
********************PLAYLIST: 01004.MPLS********************
Total   Video
Title                                                           Codec   Length  Movie Size      Disc Size       Bitrate Bitrate Main Audio Track                          Secondary Audio Track
-----                                                           ------  ------- --------------  --------------  ------- ------- ------------------                        ---------------------
01004.MPLS                                                      AVC     0:51:42 9 339 977 664   47 729 973 449  24,09   20,75   DD AC3 2.0 192Kbps
DISC INFO:
Disc Title:     DIE_ALPEN_VON_OBEN_DIE_NORDALPEN_2011_HDCLUB
Disc Size:      47 729 973 449 bytes
Protection:     AACS
BD-Java:        No
Extras:         50Hz Content
BDInfo:         0.5.8
PLAYLIST REPORT:
Name:                   01004.MPLS
Length:                 0:51:42.160 (h:m:s.ms)
Size:                   9 339 977 664 bytes
Total Bitrate:          24,09 Mbps
VIDEO:
Codec                   Bitrate             Description
-----                   -------             -----------
MPEG-4 AVC Video        20754 kbps          1080i / 25 fps / 16:9 / High Profile 4.1
AUDIO:
Codec                           Language        Bitrate         Description
-----                           --------        -------         -----------
Dolby Digital Audio             Russian         192 kbps        2.0 / 48 kHz / 192 kbps / DN -4dB
DTS-HD Master Audio             German          1702 kbps       2.0 / 48 kHz / 1702 kbps / 16-bit (DTS Core: 2.0 / 48 kHz / 1509 kbps / 16-bit)
FILES:
Name            Time In         Length          Size            Total Bitrate
----            -------         ------          ----            -------------
00004.M2TS      0:00:00.000     0:51:41.080     9 339 707 328   23 993
00007.M2TS      0:51:41.080     0:00:01.080     270 336         2 002
CHAPTERS:
Number          Time In         Length          Avg Video Rate  Max 1-Sec Rate  Max 1-Sec Time  Max 5-Sec Rate  Max 5-Sec Time  Max 10Sec Rate  Max 10Sec Time  Avg Frame Size  Max Frame Size  Max Frame Time
------          -------         ------          --------------  --------------  --------------  --------------  --------------  --------------  --------------  --------------  --------------  --------------
1               0:00:00.000     0:01:11.360     20 489 kbps     31 175 kbps     00:00:10.840    22 954 kbps     00:00:56.360    22 358 kbps     00:00:01.960    102 447 bytes   595 191 bytes   00:00:41.600
2               0:01:11.360     0:06:47.640     21 003 kbps     32 731 kbps     00:01:14.880    23 501 kbps     00:06:07.120    22 202 kbps     00:02:41.240    105 016 bytes   1 094 365 bytes 00:01:14.919
3               0:07:59.000     0:04:01.160     20 986 kbps     28 056 kbps     00:11:27.480    23 081 kbps     00:11:16.280    22 008 kbps     00:09:48.520    104 931 bytes   648 690 bytes   00:08:14.000
4               0:12:00.160     0:06:10.760     20 968 kbps     30 661 kbps     00:13:54.920    23 470 kbps     00:13:07.360    22 338 kbps     00:16:14.960    104 839 bytes   593 873 bytes   00:12:01.520
5               0:18:10.920     0:06:21.520     21 009 kbps     31 346 kbps     00:24:25.840    24 194 kbps     00:24:24.480    22 561 kbps     00:24:19.680    105 045 bytes   631 601 bytes   00:22:24.880
6               0:24:32.440     0:05:47.879     20 869 kbps     29 400 kbps     00:28:47.320    23 300 kbps     00:27:53.640    22 073 kbps     00:26:38.800    104 344 bytes   630 350 bytes   00:26:03.080
7               0:30:20.320     0:07:46.080     20 966 kbps     32 942 kbps     00:32:39.320    23 472 kbps     00:32:38.720    22 305 kbps     00:31:28.720    104 830 bytes   632 408 bytes   00:33:49.840
8               0:38:06.400     0:04:49.440     21 013 kbps     30 456 kbps     00:41:43.320    23 180 kbps     00:38:25.400    22 039 kbps     00:39:30.600    105 064 bytes   554 136 bytes   00:38:07.000
9               0:42:55.840     0:08:45.239     20 301 kbps     31 180 kbps     00:43:51.800    23 307 kbps     00:43:47.840    22 615 kbps     00:43:42.800    104 529 bytes   527 485 bytes   00:43:08.440
10              0:51:41.080     0:00:01.079     52 kbps         56 kbps         00:51:41.080    0 kbps          00:00:00.000    0 kbps          00:00:00.000    279 bytes       784 bytes       00:51:41.680
STREAM DIAGNOSTICS:
File            PID             Type            Codec           Language                Seconds                 Bitrate                 Bytes           Packets
----            ---             ----            -----           --------                --------------          --------------          -------------   -----
00004.M2TS      4113 (0x1011)   0x1B            AVC                                     3100,960                20 849                  8 081 340 930   43 967 140
00004.M2TS      4352 (0x1100)   0x81            AC3             rus (Russian)           3100,960                191                     74 061 312      482 170
00004.M2TS      4353 (0x1101)   0x86            DTS-HD MA       deu (German)            3100,960                1 710                   662 755 940     4 075 746
00007.M2TS      4113 (0x1011)   0x1B            AVC                                     1,000                   62                      7 762           51
00007.M2TS      4352 (0x1100)   0x86            DTS-HD MA       rus (Russian)           1,000                   1 644                   205 524         1 287
QUICK SUMMARY:
Disc Title: DIE_ALPEN_VON_OBEN_DIE_NORDALPEN_2011_HDCLUBDisc Size: 47 729 973 449 bytesProtection: AACSBD-Java: NoPlaylist: 01004.MPLSSize: 9 339 977 664 bytesLength: 0:51:42.160Total Bitrate: 24,09 MbpsVideo: MPEG-4 AVC Video / 20754 kbps / 1080i / 25 fps / 16:9 / High Profile 4.1Audio: Russian / Dolby Digital Audio / 2.0 / 48 kHz / 192 kbps / DN -4dBAudio: German / DTS-HD Master Audio / 2.0 / 48 kHz / 1702 kbps / 16-bit (DTS Core: 2.0 / 48 kHz / 1509 kbps / 16-bit)
********************PLAYLIST: 00004.MPLS********************
Total   Video
Title                                                           Codec   Length  Movie Size      Disc Size       Bitrate Bitrate Main Audio Track                          Secondary Audio Track
-----                                                           ------  ------- --------------  --------------  ------- ------- ------------------                        ---------------------
00004.MPLS                                                      AVC     0:51:41 9 339 707 328   47 729 973 449  24,09   20,76   DD AC3 2.0 192Kbps
DISC INFO:
Disc Title:     DIE_ALPEN_VON_OBEN_DIE_NORDALPEN_2011_HDCLUB
Disc Size:      47 729 973 449 bytes
Protection:     AACS
BD-Java:        No
Extras:         50Hz Content
BDInfo:         0.5.8
PLAYLIST REPORT:
Name:                   00004.MPLS
Length:                 0:51:41.080 (h:m:s.ms)
Size:                   9 339 707 328 bytes
Total Bitrate:          24,09 Mbps
VIDEO:
Codec                   Bitrate             Description
-----                   -------             -----------
MPEG-4 AVC Video        20761 kbps          1080i / 25 fps / 16:9 / High Profile 4.1
AUDIO:
Codec                           Language        Bitrate         Description
-----                           --------        -------         -----------
Dolby Digital Audio             Russian         192 kbps        2.0 / 48 kHz / 192 kbps / DN -4dB
DTS-HD Master Audio             German          1703 kbps       2.0 / 48 kHz / 1703 kbps / 16-bit (DTS Core: 2.0 / 48 kHz / 1509 kbps / 16-bit)
FILES:
Name            Time In         Length          Size            Total Bitrate
----            -------         ------          ----            -------------
00004.M2TS      0:00:00.000     0:51:41.080     9 339 707 328   23 993
CHAPTERS:
Number          Time In         Length          Avg Video Rate  Max 1-Sec Rate  Max 1-Sec Time  Max 5-Sec Rate  Max 5-Sec Time  Max 10Sec Rate  Max 10Sec Time  Avg Frame Size  Max Frame Size  Max Frame Time
------          -------         ------          --------------  --------------  --------------  --------------  --------------  --------------  --------------  --------------  --------------  --------------
1               0:00:00.000     0:51:41.080     20 848 kbps     32 942 kbps     00:32:39.320    24 194 kbps     00:24:24.480    22 615 kbps     00:43:42.800    104 754 bytes   1 094 365 bytes 00:01:14.919
STREAM DIAGNOSTICS:
File            PID             Type            Codec           Language                Seconds                 Bitrate                 Bytes           Packets
----            ---             ----            -----           --------                --------------          --------------          -------------   -----
00004.M2TS      4113 (0x1011)   0x1B            AVC                                     3100,960                20 849                  8 081 340 930   43 967 140
00004.M2TS      4352 (0x1100)   0x81            AC3             rus (Russian)           3100,960                191                     74 061 312      482 170
00004.M2TS      4353 (0x1101)   0x86            DTS-HD MA       deu (German)            3100,960                1 710                   662 755 940     4 075 746
QUICK SUMMARY:
Disc Title: DIE_ALPEN_VON_OBEN_DIE_NORDALPEN_2011_HDCLUBDisc Size: 47 729 973 449 bytesProtection: AACSBD-Java: NoPlaylist: 00004.MPLSSize: 9 339 707 328 bytesLength: 0:51:41.080Total Bitrate: 24,09 MbpsVideo: MPEG-4 AVC Video / 20761 kbps / 1080i / 25 fps / 16:9 / High Profile 4.1Audio: Russian / Dolby Digital Audio / 2.0 / 48 kHz / 192 kbps / DN -4dBAudio: German / DTS-HD Master Audio / 2.0 / 48 kHz / 1703 kbps / 16-bit (DTS Core: 2.0 / 48 kHz / 1509 kbps / 16-bit)
********************PLAYLIST: 00001.MPLS********************
Total   Video
Title                                                           Codec   Length  Movie Size      Disc Size       Bitrate Bitrate Main Audio Track                          Secondary Audio Track
-----                                                           ------  ------- --------------  --------------  ------- ------- ------------------                        ---------------------
00001.MPLS                                                      AVC     0:02:30 680 921 088     47 729 973 449  36,30   32,68   DTS-HD Master 2.0 1779Kbps (48kHz/16-bit)
DISC INFO:
Disc Title:     DIE_ALPEN_VON_OBEN_DIE_NORDALPEN_2011_HDCLUB
Disc Size:      47 729 973 449 bytes
Protection:     AACS
BD-Java:        No
Extras:         50Hz Content
BDInfo:         0.5.8
PLAYLIST REPORT:
Name:                   00001.MPLS
Length:                 0:02:30.080 (h:m:s.ms)
Size:                   680 921 088 bytes
Total Bitrate:          36,30 Mbps
VIDEO:
Codec                   Bitrate             Description
-----                   -------             -----------
MPEG-4 AVC Video        32682 kbps          1080i / 25 fps / 16:9 / High Profile 4.1
AUDIO:
Codec                           Language        Bitrate         Description
-----                           --------        -------         -----------
DTS-HD Master Audio             German          1779 kbps       2.0 / 48 kHz / 1779 kbps / 16-bit (DTS Core: 2.0 / 48 kHz / 1509 kbps / 16-bit)
FILES:
Name            Time In         Length          Size            Total Bitrate
----            -------         ------          ----            -------------
00001.M2TS      0:00:00.000     0:02:30.080     680 921 088     36 296
CHAPTERS:
Number          Time In         Length          Avg Video Rate  Max 1-Sec Rate  Max 1-Sec Time  Max 5-Sec Rate  Max 5-Sec Time  Max 10Sec Rate  Max 10Sec Time  Avg Frame Size  Max Frame Size  Max Frame Time
------          -------         ------          --------------  --------------  --------------  --------------  --------------  --------------  --------------  --------------  --------------  --------------
1               0:00:00.000     0:02:30.080     32 682 kbps     42 210 kbps     00:01:36.839    35 187 kbps     00:00:00.719    34 085 kbps     00:00:00.680    163 410 bytes   855 508 bytes   00:00:54.640
STREAM DIAGNOSTICS:
File            PID             Type            Codec           Language                Seconds                 Bitrate                 Bytes           Packets
----            ---             ----            -----           --------                --------------          --------------          -------------   -----
00001.M2TS      4113 (0x1011)   0x1B            AVC                                     150,000                 32 699                  613 114 460     3 334 328
00001.M2TS      4352 (0x1100)   0x86            DTS-HD MA       deu (German)            150,000                 1 780                   33 383 284      205 423
QUICK SUMMARY:
Disc Title: DIE_ALPEN_VON_OBEN_DIE_NORDALPEN_2011_HDCLUBDisc Size: 47 729 973 449 bytesProtection: AACSBD-Java: NoPlaylist: 00001.MPLSSize: 680 921 088 bytesLength: 0:02:30.080Total Bitrate: 36,30 MbpsVideo: MPEG-4 AVC Video / 32682 kbps / 1080i / 25 fps / 16:9 / High Profile 4.1Audio: German / DTS-HD Master Audio / 2.0 / 48 kHz / 1779 kbps / 16-bit (DTS Core: 2.0 / 48 kHz / 1509 kbps / 16-bit)
********************PLAYLIST: 01001.MPLS********************
Total   Video
Title                                                           Codec   Length  Movie Size      Disc Size       Bitrate Bitrate Main Audio Track                          Secondary Audio Track
-----                                                           ------  ------- --------------  --------------  ------- ------- ------------------                        ---------------------
01001.MPLS                                                      AVC     0:02:30 680 921 088     47 729 973 449  36,30   32,68   DTS-HD Master 2.0 1779Kbps (48kHz/16-bit)
DISC INFO:
Disc Title:     DIE_ALPEN_VON_OBEN_DIE_NORDALPEN_2011_HDCLUB
Disc Size:      47 729 973 449 bytes
Protection:     AACS
BD-Java:        No
Extras:         50Hz Content
BDInfo:         0.5.8
PLAYLIST REPORT:
Name:                   01001.MPLS
Length:                 0:02:30.080 (h:m:s.ms)
Size:                   680 921 088 bytes
Total Bitrate:          36,30 Mbps
VIDEO:
Codec                   Bitrate             Description
-----                   -------             -----------
MPEG-4 AVC Video        32682 kbps          1080i / 25 fps / 16:9 / High Profile 4.1
AUDIO:
Codec                           Language        Bitrate         Description
-----                           --------        -------         -----------
DTS-HD Master Audio             German          1779 kbps       2.0 / 48 kHz / 1779 kbps / 16-bit (DTS Core: 2.0 / 48 kHz / 1509 kbps / 16-bit)
FILES:
Name            Time In         Length          Size            Total Bitrate
----            -------         ------          ----            -------------
00001.M2TS      0:00:00.000     0:02:30.080     680 921 088     36 296
CHAPTERS:
Number          Time In         Length          Avg Video Rate  Max 1-Sec Rate  Max 1-Sec Time  Max 5-Sec Rate  Max 5-Sec Time  Max 10Sec Rate  Max 10Sec Time  Avg Frame Size  Max Frame Size  Max Frame Time
------          -------         ------          --------------  --------------  --------------  --------------  --------------  --------------  --------------  --------------  --------------  --------------
1               0:00:00.000     0:02:30.080     32 682 kbps     42 210 kbps     00:01:36.839    35 187 kbps     00:00:00.719    34 085 kbps     00:00:00.680    163 410 bytes   855 508 bytes   00:00:54.640
STREAM DIAGNOSTICS:
File            PID             Type            Codec           Language                Seconds                 Bitrate                 Bytes           Packets
----            ---             ----            -----           --------                --------------          --------------          -------------   -----
00001.M2TS      4113 (0x1011)   0x1B            AVC                                     150,000                 32 699                  613 114 460     3 334 328
00001.M2TS      4352 (0x1100)   0x86            DTS-HD MA       deu (German)            150,000                 1 780                   33 383 284      205 423
QUICK SUMMARY:
Disc Title: DIE_ALPEN_VON_OBEN_DIE_NORDALPEN_2011_HDCLUBDisc Size: 47 729 973 449 bytesProtection: AACSBD-Java: NoPlaylist: 01001.MPLSSize: 680 921 088 bytesLength: 0:02:30.080Total Bitrate: 36,30 MbpsVideo: MPEG-4 AVC Video / 32682 kbps / 1080i / 25 fps / 16:9 / High Profile 4.1Audio: German / DTS-HD Master Audio / 2.0 / 48 kHz / 1779 kbps / 16-bit (DTS Core: 2.0 / 48 kHz / 1509 kbps / 16-bit)
********************PLAYLIST: 00000.MPLS********************
Total   Video
Title                                                           Codec   Length  Movie Size      Disc Size       Bitrate Bitrate Main Audio Track                          Secondary Audio Track
-----                                                           ------  ------- --------------  --------------  ------- ------- ------------------                        ---------------------
00000.MPLS                                                      AVC     0:00:28 8 644 608       47 729 973 449  2,47    2,28
DISC INFO:
Disc Title:     DIE_ALPEN_VON_OBEN_DIE_NORDALPEN_2011_HDCLUB
Disc Size:      47 729 973 449 bytes
Protection:     AACS
BD-Java:        No
Extras:         50Hz Content
BDInfo:         0.5.8
PLAYLIST REPORT:
Name:                   00000.MPLS
Length:                 0:00:28.040 (h:m:s.ms)
Size:                   8 644 608 bytes
Total Bitrate:          2,47 Mbps
VIDEO:
Codec                   Bitrate             Description
-----                   -------             -----------
MPEG-4 AVC Video        2277 kbps           1080i / 25 fps / 16:9 / High Profile 4.1
FILES:
Name            Time In         Length          Size            Total Bitrate
----            -------         ------          ----            -------------
00000.M2TS      0:00:00.000     0:00:28.040     8 644 608       2 466
CHAPTERS:
Number          Time In         Length          Avg Video Rate  Max 1-Sec Rate  Max 1-Sec Time  Max 5-Sec Rate  Max 5-Sec Time  Max 10Sec Rate  Max 10Sec Time  Avg Frame Size  Max Frame Size  Max Frame Time
------          -------         ------          --------------  --------------  --------------  --------------  --------------  --------------  --------------  --------------  --------------  --------------
1               0:00:00.000     0:00:28.040     2 277 kbps      11 528 kbps     00:00:00.399    4 832 kbps      00:00:05.159    4 053 kbps      00:00:00.360    11 403 bytes    179 841 bytes   00:00:05.200
STREAM DIAGNOSTICS:
File            PID             Type            Codec           Language                Seconds                 Bitrate                 Bytes           Packets
----            ---             ----            -----           --------                --------------          --------------          -------------   -----
00000.M2TS      4113 (0x1011)   0x1B            AVC                                     27,960                  2 284                   7 981 884       43 784
QUICK SUMMARY:
Disc Title: DIE_ALPEN_VON_OBEN_DIE_NORDALPEN_2011_HDCLUBDisc Size: 47 729 973 449 bytesProtection: AACSBD-Java: NoPlaylist: 00000.MPLSSize: 8 644 608 bytesLength: 0:00:28.040Total Bitrate: 2,47 MbpsVideo: MPEG-4 AVC Video / 2277 kbps / 1080i / 25 fps / 16:9 / High Profile 4.1
********************PLAYLIST: 01000.MPLS********************
Total   Video
Title                                                           Codec   Length  Movie Size      Disc Size       Bitrate Bitrate Main Audio Track                          Secondary Audio Track
-----                                                           ------  ------- --------------  --------------  ------- ------- ------------------                        ---------------------
01000.MPLS                                                      AVC     0:00:28 8 644 608       47 729 973 449  2,47    2,28
DISC INFO:
Disc Title:     DIE_ALPEN_VON_OBEN_DIE_NORDALPEN_2011_HDCLUB
Disc Size:      47 729 973 449 bytes
Protection:     AACS
BD-Java:        No
Extras:         50Hz Content
BDInfo:         0.5.8
PLAYLIST REPORT:
Name:                   01000.MPLS
Length:                 0:00:28.040 (h:m:s.ms)
Size:                   8 644 608 bytes
Total Bitrate:          2,47 Mbps
VIDEO:
Codec                   Bitrate             Description
-----                   -------             -----------
MPEG-4 AVC Video        2277 kbps           1080i / 25 fps / 16:9 / High Profile 4.1
FILES:
Name            Time In         Length          Size            Total Bitrate
----            -------         ------          ----            -------------
00000.M2TS      0:00:00.000     0:00:28.040     8 644 608       2 466
CHAPTERS:
Number          Time In         Length          Avg Video Rate  Max 1-Sec Rate  Max 1-Sec Time  Max 5-Sec Rate  Max 5-Sec Time  Max 10Sec Rate  Max 10Sec Time  Avg Frame Size  Max Frame Size  Max Frame Time
------          -------         ------          --------------  --------------  --------------  --------------  --------------  --------------  --------------  --------------  --------------  --------------
1               0:00:00.000     0:00:28.040     2 277 kbps      11 528 kbps     00:00:00.399    4 832 kbps      00:00:05.159    4 053 kbps      00:00:00.360    11 403 bytes    179 841 bytes   00:00:05.200
STREAM DIAGNOSTICS:
File            PID             Type            Codec           Language                Seconds                 Bitrate                 Bytes           Packets
----            ---             ----            -----           --------                --------------          --------------          -------------   -----
00000.M2TS      4113 (0x1011)   0x1B            AVC                                     27,960                  2 284                   7 981 884       43 784
QUICK SUMMARY:
Disc Title: DIE_ALPEN_VON_OBEN_DIE_NORDALPEN_2011_HDCLUBDisc Size: 47 729 973 449 bytesProtection: AACSBD-Java: NoPlaylist: 01000.MPLSSize: 8 644 608 bytesLength: 0:00:28.040Total Bitrate: 2,47 MbpsVideo: MPEG-4 AVC Video / 2277 kbps / 1080i / 25 fps / 16:9 / High Profile 4.1

Скриншоты

Дополнительно

За исходные русские дороги большое спасибо lengyel.
Раздача от группы:
[Профиль] [ЛС]
Показать сообщения:    

Текущее время: Сегодня 00:06

Часовой пояс: GMT



Вы не можете начинать темы
Вы не можете отвечать на сообщения
Вы не можете редактировать свои сообщения
Вы не можете удалять свои сообщения
Вы не можете голосовать в опросах
Вы не можете прикреплять файлы к сообщениям
Вы не можете скачивать файлы