Альпы с высоты: Северные Альпы / Die Alpen von oben: Nordalpen (Лиза Эдер / Lisa Eder, Кристиан Шидловски / Christian Schidlowski) [2011, Документальный, BDRip 720p]

 
Автор Сообщение

TorrentFilm ®

Пол:

Стаж: 2 года

Сообщений: 7741



Награды: Нет

Торрент-статистика

Создавать темы 24-Июн-2015 00:10

[Цитировать]

Альпы с высоты: Северные Альпы / Die Alpen von oben: Nordalpen
-Год выпуска: 2011
Страна: Германия
Жанр: Документальный
Продолжительность: 5х ~ 00:52:00
Перевод: Профессиональный (двухголосый закадровый)
Доп. инфо о переводе: ТК "Телепутешествие"
Режиссер: Лиза Эдер / Lisa Eder, Кристиан Шидловски / Christian Schidlowski и др.
Русские субтитры: нет-Описание: В этом выпуске Значимых гор Европы: Альпы, с новой точки зрения. Уникальные кадры представят вам Альпы так, как у вас не получиться их увидеть.-Список серий:
1. От Зальцбурга, к Кенигзее / Von Salzburg zum Königssee
2. От Кенигзее в Изарталь / Vom Königssee ins Isartal
3. От Изарталь в долину реки Инн / Vom Isartal ins Inntal
4. От Миттенвальд в Альгау / Von Mittenwald ins Allgäu
5. От Альгау в Монтафон / Vom Allgäu ins Montafon-Тип релиза: BDRip 720p
Контейнер: MKV
Видео: 1280x720 at 25.000 fps, x264@L4.1, ~6797-8731 kbps
Аудио 1: Russian: 48 kHz/16-bit, АС3, 2.0 (L,R) ch, ~192 kbps kbps
Аудио 2: German: 48KHz/16-bit, AC3, 2.0 (L,R) ch, ~640 kbps
Субтитры: нет-Сэмпл-Релиз: by DeTorquemada-

MediaInfo

GeneralUnique ID : 225444525010355945825416067139455384154 (0xA99B09413A88995D9CF536F1B2D77A5A)Complete name : Z:\Die.Alpen.von.oben.Die.Nordalpen.2011.720p.BluRay.Rus.Ger.HDCLUB\Die.Alpen.von.oben.Die.Nordalpen.Vom.Allgäu.ins.Montafon.2011.720p.BluRay.Rus.Ger.HDCLUB.mkvFormat : MatroskaFormat version : Version 4 / Version 2File size : 2.83 GiBDuration : 52mn 4sOverall bit rate : 7 784 KbpsMovie name : Create by DeTorquemada for HDCLUBEncoded date : UTC 2015-06-18 18:59:32Writing application : mkvmerge v7.9.0 ('Birds') 64bitWriting library : libebml v1.3.1 + libmatroska v1.4.2
VideoID : 1Format : AVCFormat/Info : Advanced Video CodecFormat profile : High@L4.1Format settings, CABAC : YesFormat settings, ReFrames : 8 framesCodec ID : V_MPEG4/ISO/AVCDuration : 52mn 4sBit rate : 6 797 KbpsWidth : 1 280 pixelsHeight : 720 pixelsDisplay aspect ratio : 16:9Frame rate mode : ConstantFrame rate : 25.000 fpsColor space : YUVChroma subsampling : 4:2:0Bit depth : 8 bitsScan type : ProgressiveBits/(Pixel*Frame) : 0.295Stream size : 2.47 GiB (87%)Title : Альпы сверху. Северные Альпы. От Альгау в Монтафон / Nordalpen. Vom Allgäu ins Montafon (2011) - Release for HDCLUBWriting library : x264 core 130 r2273 b3065e6Encoding settings : cabac=1 / ref=8 / deblock=1:-3:-3 / analyse=0x3:0x113 / me=umh / subme=10 / psy=1 / psy_rd=1.00:0.00 / mixed_ref=1 / me_range=48 / chroma_me=1 / trellis=2 / 8x8dct=1 / cqm=0 / deadzone=21,11 / fast_pskip=1 / chroma_qp_offset=-2 / threads=6 / lookahead_threads=1 / sliced_threads=0 / nr=0 / decimate=1 / interlaced=0 / bluray_compat=0 / constrained_intra=0 / bframes=8 / b_pyramid=2 / b_adapt=2 / b_bias=0 / direct=1 / weightb=1 / open_gop=0 / weightp=2 / keyint=250 / keyint_min=25 / scenecut=40 / intra_refresh=0 / rc_lookahead=65 / rc=crf / mbtree=0 / crf=17.0 / qcomp=0.60 / qpmin=0 / qpmax=69 / qpstep=4 / vbv_maxrate=50000 / vbv_bufsize=62500 / crf_max=0.0 / nal_hrd=none / ip_ratio=1.40 / pb_ratio=1.30 / aq=1:0.80Language : GermanDefault : YesForced : NoMatrix coefficients : BT.709
Audio #1ID : 2Format : AC-3Format/Info : Audio Coding 3Mode extension : CM (complete main)Format settings, Endianness : BigCodec ID : A_AC3Duration : 52mn 4sBit rate mode : ConstantBit rate : 192 KbpsChannel(s) : 2 channelsChannel positions : Front: L RSampling rate : 48.0 KHzBit depth : 16 bitsCompression mode : LossyStream size : 71.5 MiB (2%)Title : 48KHz/16-bit, AC3, 2.0 (L,R) ch, ~192 kbps - Двухголосый закадровый, ТК "Телепутешествие"Language : RussianDefault : NoForced : No
Audio #2ID : 3Format : AC-3Format/Info : Audio Coding 3Mode extension : CM (complete main)Format settings, Endianness : BigCodec ID : A_AC3Duration : 52mn 4sBit rate mode : ConstantBit rate : 640 KbpsChannel(s) : 2 channelsChannel positions : Front: L RSampling rate : 48.0 KHzBit depth : 16 bitsCompression mode : LossyStream size : 238 MiB (8%)Title : 48KHz/16-bit, AC3, 2.0 (L,R) ch, ~640 kbpsLanguage : GermanDefault : NoForced : No
Menu00:00:00.000 : en:00:01:12.520 : en:00:06:41.919 : en:00:12:16.920 : en:00:18:13.800 : en:00:24:14.800 : en:00:29:44.160 : en:00:37:36.880 : en:00:42:44.600 : en:00:52:04.440 : en:

Скриншоты

Дополнительно

Сохранены оригинальные главы как на Blu-ray
За исходные русские дороги большое спасибо lengyel.
Раздача от группы:
[Профиль] [ЛС]
Показать сообщения:    

Текущее время: Сегодня 08:56

Часовой пояс: GMT



Вы не можете начинать темы
Вы не можете отвечать на сообщения
Вы не можете редактировать свои сообщения
Вы не можете удалять свои сообщения
Вы не можете голосовать в опросах
Вы не можете прикреплять файлы к сообщениям
Вы не можете скачивать файлы