Альпинисты (Аршо Арутюнян) [2014, Россия, приключения, DVD5] R5 Original Rus

 
Автор Сообщение

reversefile ®

Пол:

Стаж: 4 года 5 месяцев

Сообщений: 842

Откуда: ReverseFile.org



Награды: Нет

Торрент-статистика

Создавать темы 25-Июл-2014 01:06

[Цитировать]

-Альпинисты -Страна: Россия
Студия: Студия Берг Саунд
Жанр: приключения
Год выпуска: 2014
Дата выхода DVD: 13 марта 2014, «Мистерия Звука»
Продолжительность: 01:28:14
Перевод: Оригинал [Лицензия]
Cубтитры: нет
Оригинальная аудиодорожка: русский-Режиссер: Аршо Арутюнян-В ролях: Наталья Бардо, Дмитрий Клепацкий, Александр Носик, Александр Рапопорт, Наталья Громушкина, Арам Караханян, Дэвид Кацарава, Виген Степанян, Армен Петросян, Ерванд Енгибарян...-Описание: Однажды два друга-альпиниста, работающих горными спасателями, влюбленных в одну и ту же девушку, сопровождают туристов в горах Армении. В результате безответственности одного из друзей погибает турист! По решению суда он попадает в тюрьму. В обмен на свободу криминальный авторитет предлагает ему быть горным проводником в одном деле. Нужно достать припрятанный в горной пещере до лучших времен клад. Дороги друзей пересекаются! Их любимую берут в заложники. Им самим угрожает смерть, но отступать некуда… Дружба, обида, корысть, любовь, страх за жизнь — что в результате победит?-Бонусы: нет- -Качество: DVD5 R5
Формат: DVD-Video
Видео кодек: MPEG2
Аудио кодек: AC3
Видео: PAL 16:9 (720x576(0.668)) MPEG Video, 25,000 кадр/сек, 6927 Кбит/сек
Аудио: Russian (Dolby AC3, 2 ch) 192 Кбит/сек, 48,0 КГц--

DVDInfo

Title: Alpinisty.2014.DVD5
Size: 4.14 Gb ( 4 344 944,00 KBytes ) - DVD-5
Enabled regions: 1, 2, 3, 4, 5, 6, 7, 8
VTS_01 :
Play Length: 00:00:16+01:28:14
Video: PAL 16:9 (720x576) VBR, Auto Letterboxed
Audio:
Russian, AC3, 2/0 (L,R) ch, 192 kbps, Delay -49 mSec
* Menus Information *
VIDEO_TS Menu
Video:
NTSC 4:3 (720x480) VBR
Auto Pan&Scan, Auto Letterboxed
Russian Language Unit :
Title Menu
VTS_01 Menu
Video:
PAL 16:9 (720x576) VBR
Auto Letterboxed
Audio:
Not specified (Dolby AC3, 2 ch)
Russian Language Unit :
Root Menu
Chapter (PTT) Menu

MediaInfo

Общее
Полное имя : D:\Новинки 2014\Alpinisty.2014.DVD5\VIDEO_TS\VTS_01_1.VOB
Формат : MPEG-PS
Размер файла : 1024 Мбайт
Продолжительность : 19 м.
Режим общего битрейта : Переменный
Общий поток : 7263 Кбит/сек
Видео
Идентификатор : 224 (0xE0)
Формат : MPEG Video
Версия формата : Version 2
Профиль формата : Main@Main
Параметр BVOP формата : Да
Параметр матрицы формата : Выборочная
Параметр GOP формата : Variable
Продолжительность : 19 м.
Вид битрейта : Переменный
Битрейт : 6927 Кбит/сек
Максимальный битрейт : 8000 Кбит/сек
Ширина : 720 пикселей
Высота : 576 пикселей
Соотношение сторон : 16:9
Частота кадров : 25,000 кадров/сек
Стандарт вещания : PAL
Цветовое пространство : YUV
Субдискретизация насыщенности : 4:2:0
Битовая глубина : 8 бит
Метод сжатия : С потерями
Бит/(Пиксели*Кадры) : 0.668
Размер потока : 976 Мбайт (95%)
Аудио
Идентификатор : 189 (0xBD)-128 (0x80)
Формат : AC-3
Формат/Информация : Audio Coding 3
Расширение режима : CM (complete main)
Параметр Endianness формата : Big
Режим смешивания : DVD-Video
Продолжительность : 19 м.
Вид битрейта : Постоянный
Битрейт : 192 Кбит/сек
Каналы : 2 канала
Расположение каналов : Front: L R
Частота : 48,0 КГц
Битовая глубина : 16 бит
Метод сжатия : С потерями
Задержка видео : -50 мс.
Размер потока : 27,1 Мбайт (3%)

Скриншоты меню

Скриншоты фильма


-
-
[Профиль] [ЛС]

Создавать темы 06-Авг-2015 23:40 (спустя 1 год)

Топик был перенесен из форума Фильмы (HD DVD, Blu-ray и BDRemux) в форум Фильмы (DVD 5/9)
sergej644
 
Показать сообщения:    

Текущее время: Сегодня 22:37

Часовой пояс: GMT



Вы не можете начинать темы
Вы не можете отвечать на сообщения
Вы не можете редактировать свои сообщения
Вы не можете удалять свои сообщения
Вы не можете голосовать в опросах
Вы не можете прикреплять файлы к сообщениям
Вы не можете скачивать файлы