Алоха / Aloha (2015) Blu-Ray Remux 1080p | iTunes

 
Автор Сообщение

BOSS ®

Пол:

Стаж: 2 года 2 месяца

Сообщений: 3751

Откуда: ODESSA



Награды: 20 (Подробнее)

Mega Releaser 3 (Количество: 1) Top Seeder 4 (Количество: 1) Top Seeder 5 (Количество: 1)
Торрент-статистика

Создавать темы 22-Сен-2015 15:59

[Цитировать]

Название: Алоха
Оригинальное название: Aloha
Год выпуска: 2015
Жанр: Драма, мелодрама, комедия
Выпущено: США, Columbia Pictures, LStar Capital, RatPac Entertainment, Regency Enterprises
Режиссер: Кэмерон Кроу
В ролях: Брэдли Купер, Эмма Стоун, Рэйчел МакАдамс, Билл Мюррэй, Джон Красински, Дэнни МакБрайд, Алек Болдуин, Билл Кэмп, Джейден Либерер, Даниэль Роуз Расселл, Майкл Чернус, Эди Гатеги, Элизабет Марвел, Ивана Миличевич, Фахим Фазли, Семер-Аб Этмет Йоханнес, Лес Брэмлет, Дон Д. Дэвис, Джарретт Пиеске, Стивен М. Мёрджа
О фильме: 37-летний дискредитированный американский консультант по оружию Брайн Джилкрест не нравится практически всем окружающим его людям. Его единственный друг — техник по имени Джереми — супер умный и хорошо осведомленный компьютерщик. В ответ на агрессию со стороны Китая Джилкреста отправляют на бездействующую военную базу на Гавайях, чтобы оттуда он контролировал запуск современного спутника-шпиона. Это задание сведет его с девушкой по имени Трейси…

Качество: Blu-Ray Remux 1080p
Видео: MPEG-4 AVC, 27600 Кбит/с, 1920x1080
Аудио: Русский (AC3, 6 ch, 384 Кбит/с), (AC3, 2 ch, 192 Кбит/с), английский (DTS-HD MA, 6 ch, 2149 Кбит/с), (AAC, 2 ch, 87 Кбит/с)
Продолжительность: 01:44:38
Озвучивание: Дублированное [iTunes]

Скриншоты

MediaInfo

File: D:Видео 3Aloha.2015.BluRay.REMUX.1080p.AVC.DTS-HD.MA5.1.bog3417.mkv
General
Unique ID : 246767423611449031961166251472981387481 (0xB9A5AD52B4FADFFE93CFC0BDA334E8D9)
Complete name : D:Видео 3Aloha.2015.BluRay.REMUX.1080p.AVC.DTS-HD.MA5.1.bog3417.mkv
Format : Matroska
Format version : Version 2
File size : 20.2 GiB
Duration : 1h 44mn
Overall bit rate mode : Variable
Overall bit rate : 27.7 Mbps
Encoded date : UTC 2015-09-21 08:09:56
Writing application : mkvmerge v7.9.0 ('Birds') 64bit
Writing library : libebml v1.3.1 + libmatroska v1.4.2
Video
ID : 1
Format : AVC
Format/Info : Advanced Video Codec
Format profile : High@L4.1
Format settings, CABAC : Yes
Format settings, ReFrames : 2 frames
Format settings, GOP : M=1, N=10
Codec ID : V_MPEG4/ISO/AVC
Duration : 1h 44mn
Bit rate mode : Variable
Width : 1 920 pixels
Height : 1 080 pixels
Display aspect ratio : 16:9
Frame rate mode : Constant
Frame rate : 23.976 fps
Color space : YUV
Chroma subsampling : 4:2:0
Bit depth : 8 bits
Scan type : Progressive
Default : Yes
Forced : No
Audio #1
ID : 2
Format : AC-3
Format/Info : Audio Coding 3
Mode extension : CM (complete main)
Format settings, Endianness : Big
Codec ID : A_AC3
Duration : 1h 44mn
Bit rate mode : Constant
Bit rate : 384 Kbps
Channel(s) : 6 channels
Channel positions : Front: L C R, Side: L R, LFE
Sampling rate : 48.0 KHz
Bit depth : 16 bits
Compression mode : Lossy
Delay relative to video : -8ms
Stream size : 287 MiB (1%)
Title : iTunes
Language : Russian
Default : No
Forced : No
Audio #2
ID : 3
Format : AC-3
Format/Info : Audio Coding 3
Format profile : Dolby Digital
Mode extension : CM (complete main)
Format settings, Endianness : Big
Codec ID : A_AC3
Duration : 1h 44mn
Bit rate mode : Constant
Bit rate : 192 Kbps
Channel(s) : 2 channels
Channel positions : Front: L R
Sampling rate : 48.0 KHz
Bit depth : 16 bits
Compression mode : Lossy
Delay relative to video : -8ms
Stream size : 144 MiB (1%)
Title : iTunes
Language : Ukrainian
Default : No
Forced : No
Audio #3
ID : 4
Format : DTS
Format/Info : Digital Theater Systems
Format profile : MA / Core
Mode : 16
Format settings, Endianness : Big
Codec ID : A_DTS
Duration : 1h 44mn
Bit rate mode : Variable
Bit rate : Unknown / 1 509 Kbps
Channel(s) : 6 channels
Channel positions : Front: L C R, Side: L R, LFE
Sampling rate : 48.0 KHz
Bit depth : 16 bits
Compression mode : Lossless / Lossy
Language : English
Default : Yes
Forced : No
Audio #4
ID : 5
Format : AAC
Format/Info : Advanced Audio Codec
Format profile : LC
Codec ID : A_AAC
Duration : 1h 44mn
Channel(s) : 2 channels
Channel positions : Front: L R
Sampling rate : 48.0 KHz
Compression mode : Lossy
Delay relative to video : 12ms
Language : English
Default : No
Forced : No
Text #1
ID : 6
Format : UTF-8
Codec ID : S_TEXT/UTF8
Codec ID/Info : UTF-8 Plain Text
Language : Russian
Default : Yes
Forced : No
Text #2
ID : 7
Format : UTF-8
Codec ID : S_TEXT/UTF8
Codec ID/Info : UTF-8 Plain Text
Language : Russian
Default : No
Forced : No
Text #3
ID : 8
Format : UTF-8
Codec ID : S_TEXT/UTF8
Codec ID/Info : UTF-8 Plain Text
Language : Ukrainian
Default : No
Forced : No
Text #4
ID : 9
Format : UTF-8
Codec ID : S_TEXT/UTF8
Codec ID/Info : UTF-8 Plain Text
Language : Ukrainian
Default : No
Forced : No
Text #5
ID : 10
Format : UTF-8
Codec ID : S_TEXT/UTF8
Codec ID/Info : UTF-8 Plain Text
Language : English
Default : No
Forced : No
Text #6
ID : 11
Format : UTF-8
Codec ID : S_TEXT/UTF8
Codec ID/Info : UTF-8 Plain Text
Language : English
Default : No
Forced : No
Text #7
ID : 12
Format : UTF-8
Codec ID : S_TEXT/UTF8
Codec ID/Info : UTF-8 Plain Text
Language : English
Default : No
Forced : No
Menu
00:00:00.000 : en:00:00:00.000
00:04:42.949 : en:00:04:42.949
00:10:59.951 : en:00:10:59.951
00:20:02.493 : en:00:20:02.493
00:27:07.751 : en:00:27:07.751
00:33:25.754 : en:00:33:25.754
00:40:01.941 : en:00:40:01.941
00:46:40.631 : en:00:46:40.631
00:51:32.006 : en:00:51:32.006
00:56:22.337 : en:00:56:22.337
01:05:08.696 : en:01:05:08.696
01:11:08.598 : en:01:11:08.598
01:18:44.136 : en:01:18:44.136
01:25:36.423 : en:01:25:36.423
01:31:43.289 : en:01:31:43.289
01:36:29.659 : en:01:36:29.659
[Профиль] [ЛС]
Показать сообщения:    

Текущее время: Сегодня 04:29

Часовой пояс: GMT



Вы не можете начинать темы
Вы не можете отвечать на сообщения
Вы не можете редактировать свои сообщения
Вы не можете удалять свои сообщения
Вы не можете голосовать в опросах
Вы не можете прикреплять файлы к сообщениям
Вы не можете скачивать файлы