Алита: Боевой ангел / Alita: Battle Angel ( Роберт Родригес) [2019,Фантастика, боевик, триллер, мелодрама, приключения,WEB-DLRip 1080p] [CВ Студия+ENG]+[Subs Rus , ENG]

 
Author Message

Враг Нароода ®

Gender:

Longevity: 4 years 7 months

Posts: 320



: 2 ()

За внесенный вклад в развитие сайта (1) Mega Seeder 1 (1)
Торрент-статистика

Post 09-Jul-2019 08:08

[Quote]

--Алита: Боевой ангел / Alita: Battle Angel -- --Год выпуска: 2019
Выпущено: Канада, Аргентина, США, Twentieth Century Fox, Lightstorm Entertainment, Troublemaker Studios
Жанр: Фантастика, боевик, триллер, мелодрама, приключения
Продолжительность: 02:02:04--Озвучка #1: Профессиональный многоголосый - CВ Студия - Русский
Озвучка #2: Профессиональный многоголосый -Английский - Оригинал
Субтитры: Russian , English, English SDH
--Релиз Без Рекламы --MDB 7.5 --Режиссеры:
Роберт Родригес--В ролях: : Роза Салазар, Кристоф Вальц, Дженнифер Коннелли, Махершала Али, Эд Скрейн, Джеки Эрл Хейли, Кин Джонсон, Хорхе Лендеборг мл., Лана Кондор, Идара Виктор-- Действие фильма происходит через 300 лет после Великой войны в XXVI веке. Доктор Идо находит останки женщины-киборга. После починки киборг ничего не помнит, но обнаруживает, что в состоянии пользоваться боевыми приемами киборгов. Начинаются поиски утерянных воспоминаний.-- --Качество :WEB-DLRip 1080p
Формат: MKV
Видео кодек: H264
Видео: 4537Кбит/сек,1920х804(2.40),в 23.976кадр/сек,AVC (High@L4)(CABAC/5 Ref Frames)--Аудио Кодек:AC3
Аудио #1:AC3 384 Kbps, 48.0 KHz, 6 ch- CВ Студия -Русский
Аудио #2: AC3, 384 Kbps, 48.0 KHz,6 ch - - English - Оригинал--

Доп. информация:

Звуковая дорожка сделана путем наложения чистого голоса озвучивателей на центральный канал оригинальной дорожки. Качество идентично звуковой дорожке.
--

MediaInfo сезона

Общее
Уникальный идентификатор : 64627291437121990746262324320162669491 (0x309EC37A00499BC95574545AE865E3B3)
Полное имя : C:\Users\Russian Patriot\Downloads\Боевой ангел - Alita Battle Angel\Alita_Battle_Angel_2019_Н264_DD5.1_N.B_HD_1080_Rus_Eng\Alita_Battle_Angel_2019_Н264_DD5.1_N.B_HD_1080_Rus_Eng.mkv
Формат : Matroska
Версия формата : Version 4
Размер файла : 4,53 Гбайт
Продолжительность : 2 ч. 2 м.
Общий поток : 5306 Кбит/сек
Название фильма : Alita Battle Angel 2019 @ Nikolai.Baranov & PIRATIYA
Дата кодирования : UTC 2019-07-09 05:53:43
Программа кодирования : mkvmerge v35.0.0 ('All The Love In The World') 64-bit
Библиотека кодирования : libebml v1.3.9 + libmatroska v1.5.2
Видео
Идентификатор : 1
Формат : AVC
Формат/Информация : Advanced Video Codec
Профиль формата : High@L4
Настройки формата : CABAC / 5 Ref Frames
Параметр CABAC формата : Да
Параметр RefFrames формата : 5 кадров
Идентификатор кодека : V_MPEG4/ISO/AVC
Продолжительность : 2 ч. 2 м.
Битрейт : 4537 Кбит/сек
Ширина : 1920 пикселей
Высота : 804 пикселя
Соотношение сторон : 2,40:1
Режим частоты кадров : Постоянный
Частота кадров : 23,976 кадра/сек
Цветовое пространство : YUV
Субдискретизация насыщенности : 4:2:0
Битовая глубина : 8 бит
Тип развёртки : Прогрессивная
Бит/(Пиксели*Кадры) : 0.123
Размер потока : 3,87 Гбайт (86%)
Заголовок : Alita_Battle_Angel_2019_Н264_DD5.1_N.B_HD_1080_Rus_Eng
Язык : Russian
Default : Да
Forced : Нет
Цветовой диапазон : Limited
Основные цвета : BT.709
Характеристики трансфера : BT.709
Коэффициенты матрицы : BT.709
Аудио #1
Идентификатор : 5
Формат : AC-3
Формат/Информация : Audio Coding 3
Коммерческое название : Dolby Digital
Идентификатор кодека : A_AC3
Продолжительность : 2 ч. 1 м.
Вид битрейта : Постоянный
Битрейт : 384 Кбит/сек
Каналы : 6 каналов
ChannelLayout : L R C LFE Ls Rs
Частота : 48,0 КГц
Частота кадров : 31,250 кадров/сек (1536 SPF)
Битовая глубина : 16 бит
Метод сжатия : С потерями
Размер потока : 335 Мбайт (7%)
Заголовок : MVO СВ Студия @DD5.1 AC3, 384 Kbps, 48.0 KHz, 6 ch
Язык : Russian
ServiceKind/String : Complete Main
Default : Да
Forced : Нет
Аудио #2
Идентификатор : 6
Формат : AC-3
Формат/Информация : Audio Coding 3
Коммерческое название : Dolby Digital
Идентификатор кодека : A_AC3
Продолжительность : 2 ч. 1 м.
Вид битрейта : Постоянный
Битрейт : 384 Кбит/сек
Каналы : 6 каналов
ChannelLayout : L R C LFE Ls Rs
Частота : 48,0 КГц
Частота кадров : 31,250 кадров/сек (1536 SPF)
Битовая глубина : 16 бит
Метод сжатия : С потерями
Размер потока : 335 Мбайт (7%)
Заголовок : Original@DD5.1 AC3 ,384 Kbps, 48.0 KHz, 6 ch
Язык : English
ServiceKind/String : Complete Main
Default : Нет
Forced : Нет
Текст #1
Идентификатор : 2
Формат : UTF-8
Идентификатор кодека : S_TEXT/UTF8
Идентификатор кодека/Информация : UTF-8 Plain Text
Продолжительность : 1 ч. 56 м.
Битрейт : 65 бит/сек
ElementCount : 1318
Размер потока : 55,5 Кбайт (0%)
Заголовок : Rus
Язык : Russian
Default : Да
Forced : Нет
Текст #2
Идентификатор : 3
Формат : UTF-8
Идентификатор кодека : S_TEXT/UTF8
Идентификатор кодека/Информация : UTF-8 Plain Text
Продолжительность : 1 ч. 56 м.
Битрейт : 46 бит/сек
ElementCount : 1590
Размер потока : 39,5 Кбайт (0%)
Заголовок : Original - SDH
Язык : English
Default : Нет
Forced : Нет
Текст #3
Идентификатор : 4
Формат : UTF-8
Идентификатор кодека : S_TEXT/UTF8
Идентификатор кодека/Информация : UTF-8 Plain Text
Продолжительность : 1 ч. 56 м.
Битрейт : 40 бит/сек
ElementCount : 1349
Размер потока : 35,0 Кбайт (0%)
Заголовок : Original
Язык : English
Default : Нет
Forced : Нет
Меню
00:00:00.000 : en:Chapter 01 / :Глава 01 / :Глава 01 / :Глава 01 / :Глава 01 / :Глава 01
00:03:29.626 : en:Chapter 02
00:07:52.680 : en:Chapter 03
00:10:08.982 : en:Chapter 04
00:13:07.702 : en:Chapter 05
00:15:07.738 : en:Chapter 06
00:18:05.539 : en:Chapter 07
00:22:59.707 : en:Chapter 08
00:25:36.321 : en:Chapter 09
00:31:41.893 : en:Chapter 10
00:33:30.209 : en:Chapter 11
00:36:33.809 : en:Chapter 12
00:38:31.885 : en:Chapter 13
00:42:06.473 : en:Chapter 14
00:45:59.204 : en:Chapter 15
00:48:32.439 : en:Chapter 16
00:52:57.995 : en:Chapter 17
00:55:15.339 : en:Chapter 18
01:00:40.746 : en:Chapter 19
01:02:57.548 : en:Chapter 20
01:05:17.770 : en:Chapter 21
01:10:51.477 : en:Chapter 22
01:13:38.268 : en:Chapter 23
01:16:36.194 : en:Chapter 24
01:18:53.205 : en:Chapter 25
01:22:49.274 : en:Chapter 26
01:24:56.316 : en:Chapter 27
01:28:26.192 : en:Chapter 28
01:33:19.527 : en:Chapter 29
01:36:09.738 : en:Chapter 30
01:41:55.667 : en:Chapter 31
01:45:24.417 : en:Chapter 32
01:48:17.464 : en:Chapter 33
01:51:44.628 : en:Chapter 34
01:54:44.640 : en:Chapter 35
01:56:52.476 : en:Chapter 36
--

Скриншоты

-- -- -- --Релиз от: Nikolai.Baranov & PIRATIYA . Поблагодарить:
ЯД: 410017546713876
-- -- -- --Время раздачи : 24/7---
[Profile] [PM]
Display posts from previous:    

The time now is: Today 16:30

All times are GMT



You cannot post new topics in this forum
You cannot reply to topics in this forum
You cannot edit your posts in this forum
You cannot delete your posts in this forum
You cannot vote in polls in this forum
You cannot attach files in this forum
You cannot download files in this forum