(Russian Rock) АлисА - Мы Вместе 20 Лет (Live, 2CD) - 2005 [FLAC, image +.cue, lossless]

 
Автор Сообщение

sergej644 ®

Пол:

Стаж: 5 лет 11 месяцев

Сообщений: 6169

Откуда: Soviet Union



Награды: 9 (Подробнее)

Top Seeder 3 (Количество: 1) Mega Seeder 3 (Количество: 1) Top Seeder 4 (Количество: 1)
Торрент-статистика

Создавать темы 21-Ноя-2016 13:30

[Цитировать]

-АлисА - Мы Вместе 20 Лет--
Год издания: 2005
Страна: Russia
Жанр: Russian Rock
Продолжительность: 02:10:31-Лейбл издания: Mainstream Production
Страна-выпуска диска: Russia
Номер по каталогу: vol. 140.4-Формат: FLAC
Битрейт аудио: Lossless
Тип рипа: image +.cue
Наличие сканов в содержимом раздачи: да
-

Трэклист

CD 1 | 01:07:28


01.Intro(3:48)
02.Родина(3:27)
03.Земля(4:22)
04.Повелитель Блох(5:09)
05.Грязь(4:04)
06.По-Барабану(2:49)
07.Без Креста(5:32)
08.Смутные Дни(3:43)
09.Ямщик (Я Дышал Синевой)(6:46)
10.Ветер Водит Хоровод(8:18)
11.Емеля(0:49)
12.Инок, Воин и Шут(5:33)
13.Небо Славян(4:44)
14.Непокорные(3:55)
15.Моё Поколение(4:30)

CD 2 | 01:03:03


01.Всадники(6:52)
02.Антихрист(3:31)
03.Званые(6:26)
04.Мама(6:44)
05.Душа(6:47)
06.Движение вспять(4:53)
07.Трасса Е-95(3:35)
08.Красное на чёрном(4:42)
09.Нет войне(2:57)
10.Спокойная ночь(5:34)
11.Радости печаль(7:23)
12.Мы вместе(3:39)
-Алиса — советская и российская рок-группа, образованная в 1983 году в Ленинграде. Одна из самых популярных отечественных рок-групп России и СССР. Лидер и автор большинства песен Алисы — вокалист Константин Кинчев. Алиса является одной из популярнейших групп в России и выступает в качестве хедлайнера на различных фестивалях. Запись данного концерта состоялась в ДС "Юбилейный", г. Санкт-Петербург, 15.11.2003 года.

Лог создания рипа

CD 1

Exact Audio Copy V0.99 prebeta 5 from 4. May 2009
Отчёт EAC об извлечении, выполненном 25. декабря 2009, 20:40
АлисА / МЫ ВМЕСТЕ 20 ЛЕТ часть1
Дисковод: Optiarc DVD RW AD-7203A   Adapter: 0  ID: 0
Режим чтения                 : Достоверность
Использование точного потока : Да
Отключение кэша аудио        : Да
Использование указателей C2  : Нет
Коррекция смещения при чтении                     : 48
Способность читать области Lead-in и Lead-out     : Нет
Заполнение пропущенных сэмплов тишиной            : Да
Удаление блоков с тишиной в начале и конце        : Нет
При вычислениях CRC использовались нулевые сэмплы : Да
Интерфейс                                         : Встроенный Win32-интерфейс для Win NT/2000
Выходной формат : Внутренние WAV-операции
Формат сэмплов  : 44.100 Гц; 16 бит; стерео
TOC извлечённого CD
     Трек |   Старт  | Длительность | Начальный сектор | Конечный сектор
    ---------------------------------------------------------------------
       1  |  0:00.00 |    3:47.68   |           0      |      17092
       2  |  3:47.68 |    3:27.01   |       17093      |      32618
       3  |  7:14.69 |    4:22.08   |       32619      |      52276
       4  | 11:37.02 |    5:08.49   |       52277      |      75425
       5  | 16:45.51 |    4:04.36   |       75426      |      93761
       6  | 20:50.12 |    2:49.05   |       93762      |     106441
       7  | 23:39.17 |    5:31.73   |      106442      |     131339
       8  | 29:11.15 |    3:43.14   |      131340      |     148078
       9  | 32:54.29 |    6:45.61   |      148079      |     178514
      10  | 39:40.15 |    8:17.40   |      178515      |     215829
      11  | 47:57.55 |    0:48.54   |      215830      |     219483
      12  | 48:46.34 |    5:33.19   |      219484      |     244477
      13  | 54:19.53 |    4:43.39   |      244478      |     265741
      14  | 59:03.17 |    3:54.48   |      265742      |     283339
      15  | 62:57.65 |    4:30.18   |      283340      |     303607
Характеристики диапазона извлечения и сообщения об ошибках
Выбранный диапазон
     Имя файла D:\RIPPED\АлисА - МЫ ВМЕСТЕ 20 ЛЕТ часть1.wav
     Пиковый уровень 99.4 %
     Качество диапазона 100.0 %
     CRC теста D76785B9
     CRC копии D76785B9
     Копирование... OK
Ошибок не произошло
AccurateRip: сводка
Трек  1  точность не определена (достоверность 2)  [D0FAD54C], AccurateRip вернул [0101F6DB]
Трек  2  точность не определена (достоверность 2)  [F84D8FF2], AccurateRip вернул [99D84ABA]
Трек  3  точность не определена (достоверность 2)  [C203EC12], AccurateRip вернул [64050B67]
Трек  4  точность не определена (достоверность 2)  [E2715C6E], AccurateRip вернул [F5197421]
Трек  5  точность не определена (достоверность 2)  [701D2C71], AccurateRip вернул [E02E92FC]
Трек  6  точность не определена (достоверность 2)  [98481D06], AccurateRip вернул [00FDF745]
Трек  7  точность не определена (достоверность 2)  [56AEEE58], AccurateRip вернул [F6BF25E4]
Трек  8  точность не определена (достоверность 2)  [F5A20D87], AccurateRip вернул [95A97D12]
Трек  9  точность не определена (достоверность 2)  [CF8D4C97], AccurateRip вернул [BCAAF197]
Трек 10  точность не определена (достоверность 2)  [966B0924], AccurateRip вернул [53114ED9]
Трек 11  точность не определена (достоверность 2)  [75A244FF], AccurateRip вернул [675C40F9]
Трек 12  точность не определена (достоверность 2)  [DDC12929], AccurateRip вернул [AD8ECDF8]
Трек 13  точность не определена (достоверность 2)  [58B30232], AccurateRip вернул [88834C0A]
Трек 14  точность не определена (достоверность 2)  [CD91ED16], AccurateRip вернул [0F0B1C26]
Трек 15  точность не определена (достоверность 2)  [14C164AD], AccurateRip вернул [C3941D21]
Ни один трек не прошёл проверки на точность
В вашей базе может быть иной вариант штамповки диска
Конец отчёта

CD 2

Exact Audio Copy V0.99 prebeta 5 from 4. May 2009
Отчёт EAC об извлечении, выполненном 25. декабря 2009, 21:14
АлисА / МЫ ВМЕСТЕ 20 ЛЕТ часть2
Дисковод: Optiarc DVD RW AD-7203A   Adapter: 0  ID: 0
Режим чтения                 : Достоверность
Использование точного потока : Да
Отключение кэша аудио        : Да
Использование указателей C2  : Нет
Коррекция смещения при чтении                     : 48
Способность читать области Lead-in и Lead-out     : Нет
Заполнение пропущенных сэмплов тишиной            : Да
Удаление блоков с тишиной в начале и конце        : Нет
При вычислениях CRC использовались нулевые сэмплы : Да
Интерфейс                                         : Встроенный Win32-интерфейс для Win NT/2000
Выходной формат : Внутренние WAV-операции
Формат сэмплов  : 44.100 Гц; 16 бит; стерео
TOC извлечённого CD
     Трек |   Старт  | Длительность | Начальный сектор | Конечный сектор
    ---------------------------------------------------------------------
       1  |  0:00.00 |    6:52.14   |           0      |      30913
       2  |  6:52.14 |    3:31.05   |       30914      |      46743
       3  | 10:23.19 |    6:25.61   |       46744      |      75679
       4  | 16:49.05 |    6:43.42   |       75680      |     105946
       5  | 23:32.47 |    6:46.72   |      105947      |     136468
       6  | 30:19.44 |    4:53.14   |      136469      |     158457
       7  | 35:12.58 |    3:34.71   |      158458      |     174578
       8  | 38:47.54 |    4:41.70   |      174579      |     195723
       9  | 43:29.49 |    2:56.63   |      195724      |     208986
      10  | 46:26.37 |    5:34.12   |      208987      |     234048
      11  | 52:00.49 |    7:23.36   |      234049      |     267309
      12  | 59:24.10 |    3:39.13   |      267310      |     283747
Характеристики диапазона извлечения и сообщения об ошибках
Выбранный диапазон
     Имя файла D:\RIPPED\АлисА - МЫ ВМЕСТЕ 20 ЛЕТ часть2.wav
     Пиковый уровень 99.4 %
     Качество диапазона 100.0 %
     CRC теста 03FE730B
     CRC копии 03FE730B
     Копирование... OK
Ошибок не произошло
AccurateRip: сводка
Трек  1  точное извлечение (доверие 2)  [9D8C8516]
Трек  2  точное извлечение (доверие 2)  [0194BF7A]
Трек  3  точное извлечение (доверие 2)  [FEBF7375]
Трек  4  точное извлечение (доверие 2)  [75FA3BA8]
Трек  5  точное извлечение (доверие 2)  [76F525AB]
Трек  6  точное извлечение (доверие 2)  [8E563B4A]
Трек  7  точное извлечение (доверие 2)  [0353D064]
Трек  8  точное извлечение (доверие 2)  [6FAAEDF5]
Трек  9  точное извлечение (доверие 2)  [AE9259B3]
Трек 10  точное извлечение (доверие 2)  [879F34B9]
Трек 11  точное извлечение (доверие 2)  [C6CC375B]
Трек 12  точность не определена (достоверность 2)  [C5296D4C], AccurateRip вернул [C0991D93]
11 трек(и) скопированы точно
1 трек(и) не удалось проверить на точность
Некоторые треки не прошли проверку на точность
Конец отчёта

Индексная карта (non-compilant .cue)

CD 1

REM GENRE Rock
REM DATE 2005
REM DISCID EA0FD00F
REM COMMENT ExactAudioCopy v0.99pb5
PERFORMER "АлисА"
TITLE "МЫ ВМЕСТЕ 20 ЛЕТ часть1"
FILE "АлисА - МЫ ВМЕСТЕ 20 ЛЕТ часть1.wav" WAVE
  TRACK 01 AUDIO
    TITLE "Intro"
    ISRC RUA100514001
    INDEX 01 00:00:00
  TRACK 02 AUDIO
    TITLE "Родина"
    ISRC RUA100514002
    INDEX 01 03:47:68
  TRACK 03 AUDIO
    TITLE "Земля"
    ISRC RUA100514003
    INDEX 01 07:14:69
  TRACK 04 AUDIO
    TITLE "Повелитель Блох"
    ISRC RUA100514004
    INDEX 00 11:37:00
    INDEX 01 11:37:02
  TRACK 05 AUDIO
    TITLE "Грязь"
    ISRC RUA100514005
    INDEX 01 16:45:51
  TRACK 06 AUDIO
    TITLE "По-Барабану"
    ISRC RUA100514006
    INDEX 01 20:50:12
  TRACK 07 AUDIO
    TITLE "Без Креста"
    ISRC RUA100514007
    INDEX 01 23:39:17
  TRACK 08 AUDIO
    TITLE "Смутные Дни"
    ISRC RUA100514008
    INDEX 01 29:11:15
  TRACK 09 AUDIO
    TITLE "Ямщик (Я Дышал Синевой)"
    ISRC RUA100514009
    INDEX 01 32:54:29
  TRACK 10 AUDIO
    TITLE "Ветер Водит Хоровод"
    ISRC RUA100514010
    INDEX 01 39:40:15
  TRACK 11 AUDIO
    TITLE "Емеля"
    ISRC RUA100514011
    INDEX 00 47:57:35
    INDEX 01 47:57:55
  TRACK 12 AUDIO
    TITLE "Инок, Воин и Шут"
    ISRC RUA100514012
    INDEX 00 48:46:14
    INDEX 01 48:46:34
  TRACK 13 AUDIO
    TITLE "Небо Славян"
    ISRC RUA100514013
    INDEX 01 54:19:53
  TRACK 14 AUDIO
    TITLE "Непокорные"
    ISRC RUA100514014
    INDEX 00 59:02:53
    INDEX 01 59:03:17
  TRACK 15 AUDIO
    TITLE "Моё Поколение"
    ISRC RUA100514015
    INDEX 01 62:57:65

CD 2

REM GENRE Rock
REM DATE 2005
REM DISCID 880EC70C
REM COMMENT "ExactAudioCopy v0.99pb5"
PERFORMER "АлисА"
TITLE "МЫ ВМЕСТЕ 20 ЛЕТ часть2"
FILE "АлисА - МЫ ВМЕСТЕ 20 ЛЕТ часть2.wav" WAVE
  TRACK 01 AUDIO
    TITLE "Всадники"
    PERFORMER "АлисА"
    ISRC RUA100514016
    INDEX 01 00:00:00
  TRACK 02 AUDIO
    TITLE "Антихрист"
    PERFORMER "АлисА"
    ISRC RUA100514017
    INDEX 01 06:52:14
  TRACK 03 AUDIO
    TITLE "Званые"
    PERFORMER "АлисА"
    ISRC RUA100514018
    INDEX 01 10:23:19
  TRACK 04 AUDIO
    TITLE "Мама"
    PERFORMER "АлисА"
    ISRC RUA100514019
    INDEX 00 16:48:65
    INDEX 01 16:49:05
  TRACK 05 AUDIO
    TITLE "Душа"
    PERFORMER "АлисА"
    ISRC RUA100514020
    INDEX 01 23:32:47
  TRACK 06 AUDIO
    TITLE "Движение вспять"
    PERFORMER "АлисА"
    ISRC RUA100514021
    INDEX 01 30:19:44
  TRACK 07 AUDIO
    TITLE "Трасса Е-95"
    PERFORMER "АлисА"
    ISRC RUA100514023
    INDEX 01 35:12:58
  TRACK 08 AUDIO
    TITLE "Красное на чёрном"
    PERFORMER "АлисА"
    ISRC RUA100514024
    INDEX 00 38:47:42
    INDEX 01 38:47:54
  TRACK 09 AUDIO
    TITLE "Нет войне"
    PERFORMER "АлисА"
    ISRC RUA100514025
    INDEX 01 43:29:49
  TRACK 10 AUDIO
    TITLE "Спокойная ночь"
    PERFORMER "АлисА"
    ISRC RUA100514026
    INDEX 00 46:26:32
    INDEX 01 46:26:37
  TRACK 11 AUDIO
    TITLE "Радости печаль"
    PERFORMER "АлисА"
    ISRC RUA100514027
    INDEX 00 52:00:48
    INDEX 01 52:00:49
  TRACK 12 AUDIO
    TITLE "Мы вместе"
    PERFORMER "АлисА"
    ISRC RUA100514030
    INDEX 00 59:23:49
    INDEX 01 59:24:10
--
[Профиль] [ЛС]
Показать сообщения:    

Текущее время: Сегодня 09:05

Часовой пояс: GMT



Вы не можете начинать темы
Вы не можете отвечать на сообщения
Вы не можете редактировать свои сообщения
Вы не можете удалять свои сообщения
Вы не можете голосовать в опросах
Вы не можете прикреплять файлы к сообщениям
Вы не можете скачивать файлы