(Rock)Алиса - Лучшее за 30 лет. Часть 1 (2014) 2CD [FLAC|image+.cue]

 
Автор Сообщение

sergej644 ®

Пол:

Стаж: 4 года 11 месяцев

Сообщений: 6043

Откуда: Soviet Union



Награды: Нет

Торрент-статистика

Создавать темы 17-Июн-2015 21:49

[Цитировать]

- Алиса - Лучшее за 30 лет. Часть 1 (2014) 2CD - -Год: 2014 Жанр: Rock Продолжительность: 02:22:51 Издатель: Мистерия звука Номер по каталогу: CD-M+320-2 Источник: alexander_92-Кодек: FLAC Битрейт: Lossless Тип рипа: image+.cue-

CD 1

Треклист:
01. Экспериментатор
02. Веретено
03. Время менять имена
04. Православные
05. Пересмотри
06. Мы вместе
07. Красное на черном
08. Стать севера
09. Стерх
10. Арифметика
11. Эй, ты, там, на том берегу
12. То ли про Любовь, то ли про Беду
13. Мое поколение
14. Радости Печаль
15. Компромисс
Продолжительноcть: 01:07:03

Отчет EAC:

Exact Audio Copy V1.0 beta 3 from 29. August 2011
Отчёт EAC об извлечении, выполненном 18. ноября 2014, 21:41
Алиса / Лучшее за 30 лет. Часть 1 (CD1)
Дисковод: ATAPI   iHAS524   B   Adapter: 1  ID: 0
Режим чтения                 : Достоверность
Использование точного потока : Да
Отключение кэша аудио        : Да
Использование указателей C2  : Нет
Коррекция смещения при чтении                     : 6
Способность читать области Lead-in и Lead-out     : Нет
Заполнение пропущенных сэмплов тишиной            : Да
Удаление блоков с тишиной в начале и конце        : Нет
При вычислениях CRC использовались нулевые сэмплы : Да
Интерфейс                                         : Установленный внешний ASPI-интерфейс
Выходной формат          : Пользовательский кодировщик
Выбранный битрейт        : 128 kBit/s
Качество                 : Высокий
Добавление ID3-тега      : Нет
Утилита сжатия           : C:\Program Files\Exact Audio Copy\Flac\flac.exe
Дополнительные параметры : -V -8 -T "Date=%year%" -T "Genre=%genre%" %source%
TOC извлечённого CD
     Трек |   Старт  | Длительность | Начальный сектор | Конечный сектор
    ---------------------------------------------------------------------
       1  |  0:00.00 |    5:09.01   |           0      |      23175
       2  |  5:09.01 |    4:02.54   |       23176      |      41379
       3  |  9:11.55 |    2:50.30   |       41380      |      54159
       4  | 12:02.10 |    4:24.28   |       54160      |      73987
       5  | 16:26.38 |    3:30.12   |       73988      |      89749
       6  | 19:56.50 |    2:40.11   |       89750      |     101760
       7  | 22:36.61 |    4:51.03   |      101761      |     123588
       8  | 27:27.64 |    4:23.19   |      123589      |     143332
       9  | 31:51.08 |    6:52.47   |      143333      |     174279
      10  | 38:43.55 |    3:00.49   |      174280      |     187828
      11  | 41:44.29 |    2:49.33   |      187829      |     200536
      12  | 44:33.62 |    7:12.24   |      200537      |     232960
      13  | 51:46.11 |    3:54.10   |      232961      |     250520
      14  | 55:40.21 |    7:11.14   |      250521      |     282859
      15  | 62:51.35 |    4:11.26   |      282860      |     301710
Характеристики диапазона извлечения и сообщения об ошибках
Выбранный диапазон
     Имя файла C:\Documents and Settings\Александр\Мои документы\Моя музыка\Exact Audio Copy\Алиса - Лучшее за 30 лет. Часть 1 (2CD) Lossless\01 Лучшее за 30 лет. Часть 1 (CD1)\Алиса - Лучшее за 30 лет. Часть 1 (CD1).wav
     Пиковый уровень 87.9 %
     Скорость извлечения 3.3 X
     Качество диапазона 100.0 %
     CRC теста 9ECCCD72
     CRC копии 9ECCCD72
     Копирование... OK
Ошибок не произошло
AccurateRip: сводка
Трек  1  отсутствует в базе данных
Трек  2  отсутствует в базе данных
Трек  3  отсутствует в базе данных
Трек  4  отсутствует в базе данных
Трек  5  отсутствует в базе данных
Трек  6  отсутствует в базе данных
Трек  7  отсутствует в базе данных
Трек  8  отсутствует в базе данных
Трек  9  отсутствует в базе данных
Трек 10  отсутствует в базе данных
Трек 11  отсутствует в базе данных
Трек 12  отсутствует в базе данных
Трек 13  отсутствует в базе данных
Трек 14  отсутствует в базе данных
Трек 15  отсутствует в базе данных
Ни одного трека нет в базе AccurateRip
Конец отчёта
---- CUETools DB Plugin V2.1.3
[CTDB TOCID: FwD3Zdt3RJwYewLVfkFmbm5geSs-] disk not present in database, Submit result: FwD3Zdt3RJwYewLVfkFmbm5geSs- has been uploaded
==== Контрольная сумма отчёта D729E3A3ACA2B2FCE16E15675F4EF07F252531DEE8A8CBE704D39D3DEA18E37F ====

Отчет auCDtect Task manager:

-----------------------
DON'T MODIFY THIS FILE
-----------------------
PERFORMER: auCDtect Task Manager, ver. 1.6.0 RC1 build 1.6.0.1
Copyright (c) 2008-2010 y-soft. All rights reserved
http://y-soft.org
ANALYZER: auCDtect: CD records authenticity detector, version 0.8.2
Copyright (c) 2004 Oleg Berngardt. All rights reserved.
Copyright (c) 2004 Alexander Djourik. All rights reserved.
FILE: Алиса - Лучшее за 30 лет. Часть 1 (CD1).flac
  Size: 465784112 Hash: 479206E40EDB22481FEE4FEA863CF8E5 Accuracy: -m0
  Conclusion: CDDA 100%
  Signature: 404FDA56EF442501A3BBD6B63BBE34EF0E31FBE1

Отчет .CUE:

REM GENRE Rock
REM DATE 2014
REM DISCID D90FB60F
REM COMMENT "ExactAudioCopy v1.0b3"
PERFORMER "Алиса"
TITLE "Лучшее за 30 лет. Часть 1 (CD1)"
FILE "Алиса - Лучшее за 30 лет. Часть 1 (CD1).flac" WAVE
  TRACK 01 AUDIO
    TITLE "Экспериментатор"
    PERFORMER "Алиса"
    INDEX 01 00:00:00
  TRACK 02 AUDIO
    TITLE "Веретено"
    PERFORMER "Алиса"
    INDEX 01 05:09:01
  TRACK 03 AUDIO
    TITLE "Время менять имена"
    PERFORMER "Алиса"
    INDEX 01 09:11:55
  TRACK 04 AUDIO
    TITLE "Православные"
    PERFORMER "Алиса"
    INDEX 01 12:02:10
  TRACK 05 AUDIO
    TITLE "Пересмотри"
    PERFORMER "Алиса"
    INDEX 01 16:26:38
  TRACK 06 AUDIO
    TITLE "Мы вместе"
    PERFORMER "Алиса"
    INDEX 01 19:56:50
  TRACK 07 AUDIO
    TITLE "Красное на черном"
    PERFORMER "Алиса"
    INDEX 01 22:36:61
  TRACK 08 AUDIO
    TITLE "Стать севера"
    PERFORMER "Алиса"
    INDEX 01 27:27:64
  TRACK 09 AUDIO
    TITLE "Стерх"
    PERFORMER "Алиса"
    INDEX 01 31:51:08
  TRACK 10 AUDIO
    TITLE "Арифметика"
    PERFORMER "Алиса"
    INDEX 01 38:43:55
  TRACK 11 AUDIO
    TITLE "Эй, ты, там, на том берегу"
    PERFORMER "Алиса"
    INDEX 01 41:44:29
  TRACK 12 AUDIO
    TITLE "То ли про любовь, то ли про беду"
    PERFORMER "Алиса"
    INDEX 01 44:33:62
  TRACK 13 AUDIO
    TITLE "Мое поколение"
    PERFORMER "Алиса"
    INDEX 01 51:46:11
  TRACK 14 AUDIO
    TITLE "Радости печаль"
    PERFORMER "Алиса"
    INDEX 01 55:40:21
  TRACK 15 AUDIO
    TITLE "Компромисс"
    PERFORMER "Алиса"
    INDEX 01 62:51:35

CD 2

Треклист:
01. Тоталитарный рэп
02. Дождь и я
03. Мы держим путь в сторону леса
04. Воздух
05. Шейк
06. Левша
07. Шестой лесничий
08. Вот так
09. Ко мне
10. Апрель
11. Движение вспять
12. День огня
13. Капля солнца
14. Пульс
15. Жги
Продолжительноcть: 01:15:48

Отчет EAC:

Exact Audio Copy V1.0 beta 3 from 29. August 2011
Отчёт EAC об извлечении, выполненном 18. ноября 2014, 20:41
Алиса / Лучшее за 30 лет (CD2)
Дисковод: ATAPI   iHAS524   B   Adapter: 1  ID: 0
Режим чтения                 : Достоверность
Использование точного потока : Да
Отключение кэша аудио        : Да
Использование указателей C2  : Нет
Коррекция смещения при чтении                     : 6
Способность читать области Lead-in и Lead-out     : Нет
Заполнение пропущенных сэмплов тишиной            : Да
Удаление блоков с тишиной в начале и конце        : Нет
При вычислениях CRC использовались нулевые сэмплы : Да
Интерфейс                                         : Установленный внешний ASPI-интерфейс
Выходной формат          : Пользовательский кодировщик
Выбранный битрейт        : 128 kBit/s
Качество                 : Высокий
Добавление ID3-тега      : Нет
Утилита сжатия           : C:\Program Files\Exact Audio Copy\Flac\flac.exe
Дополнительные параметры : -V -8 -T "Date=%year%" -T "Genre=%genre%" %source%
TOC извлечённого CD
     Трек |   Старт  | Длительность | Начальный сектор | Конечный сектор
    ---------------------------------------------------------------------
       1  |  0:00.00 |    6:16.19   |           0      |      28218
       2  |  6:16.19 |    4:10.65   |       28219      |      47033
       3  | 10:27.09 |    3:54.68   |       47034      |      64651
       4  | 14:22.02 |    5:39.37   |       64652      |      90113
       5  | 20:01.39 |    5:07.33   |       90114      |     113171
       6  | 25:08.72 |    4:04.52   |      113172      |     131523
       7  | 29:13.49 |    5:57.20   |      131524      |     158318
       8  | 35:10.69 |    4:28.58   |      158319      |     178476
       9  | 39:39.52 |    6:27.17   |      178477      |     207518
      10  | 46:06.69 |    4:31.11   |      207519      |     227854
      11  | 50:38.05 |    5:06.23   |      227855      |     250827
      12  | 55:44.28 |    5:58.60   |      250828      |     277737
      13  | 61:43.13 |    4:19.03   |      277738      |     297165
      14  | 66:02.16 |    3:41.47   |      297166      |     313787
      15  | 69:43.63 |    6:03.42   |      313788      |     341054
Характеристики диапазона извлечения и сообщения об ошибках
Выбранный диапазон
     Имя файла C:\Documents and Settings\Александр\Мои документы\Моя музыка\Exact Audio Copy\Алиса - Лучшее за 30 лет. Часть 1 (CD2).wav
     Пиковый уровень 100.0 %
     Скорость извлечения 3.5 X
     Качество диапазона 99.9 %
     CRC теста 1696CBF1
     CRC копии 1696CBF1
     Копирование... OK
Ошибок не произошло
AccurateRip: сводка
Трек  1  отсутствует в базе данных
Трек  2  отсутствует в базе данных
Трек  3  отсутствует в базе данных
Трек  4  отсутствует в базе данных
Трек  5  отсутствует в базе данных
Трек  6  отсутствует в базе данных
Трек  7  отсутствует в базе данных
Трек  8  отсутствует в базе данных
Трек  9  отсутствует в базе данных
Трек 10  отсутствует в базе данных
Трек 11  отсутствует в базе данных
Трек 12  отсутствует в базе данных
Трек 13  отсутствует в базе данных
Трек 14  отсутствует в базе данных
Трек 15  отсутствует в базе данных
Ни одного трека нет в базе AccurateRip
Конец отчёта
---- CUETools DB Plugin V2.1.3
[CTDB TOCID: g9u2zz_OXPP09YbW.ynyxwNOBeI-] disk not present in database, Submit result: g9u2zz_OXPP09YbW.ynyxwNOBeI- has been uploaded
==== Контрольная сумма отчёта 4EBDAF4BE7AF41AA4F31A429425A8ED92EB8F7F4042F10E4DD7CC92585AD3825 ====

Отчет auCDtect Task manager:

-----------------------
DON'T MODIFY THIS FILE
-----------------------
PERFORMER: auCDtect Task Manager, ver. 1.6.0 RC1 build 1.6.0.1
Copyright (c) 2008-2010 y-soft. All rights reserved
http://y-soft.org
ANALYZER: auCDtect: CD records authenticity detector, version 0.8.2
Copyright (c) 2004 Oleg Berngardt. All rights reserved.
Copyright (c) 2004 Alexander Djourik. All rights reserved.
FILE: Алиса - Лучшее за 30 лет. Часть 1 (CD2).flac
  Size: 544067847 Hash: AA74FB4FE41FADC209A3C8B746D67403 Accuracy: -m0
  Conclusion: CDDA 100%
  Signature: 84E27F9168B4268D398090F029C892C0B0FC1C1A

Отчет .CUE:

REM GENRE Rock
REM DATE 2014
REM DISCID CF11C30F
REM COMMENT "ExactAudioCopy v1.0b3"
PERFORMER "Алиса"
TITLE "Лучшее за 30 лет. Часть 1 (CD2)"
FILE "Алиса - Лучшее за 30 лет. Часть 1 (CD2).flac" WAVE
  TRACK 01 AUDIO
    TITLE "Тоталитарный рэп"
    PERFORMER "Алиса"
    INDEX 01 00:00:00
  TRACK 02 AUDIO
    TITLE "Дождь и я"
    PERFORMER "Алиса"
    INDEX 01 06:16:19
  TRACK 03 AUDIO
    TITLE "Мы держим путь в сторону леса"
    PERFORMER "Алиса"
    INDEX 01 10:27:09
  TRACK 04 AUDIO
    TITLE "Воздух"
    PERFORMER "Алиса"
    INDEX 01 14:22:02
  TRACK 05 AUDIO
    TITLE "Шейк"
    PERFORMER "Алиса"
    INDEX 01 20:01:39
  TRACK 06 AUDIO
    TITLE "Левша"
    PERFORMER "Алиса"
    INDEX 01 25:08:72
  TRACK 07 AUDIO
    TITLE "Шестой лесничий"
    PERFORMER "Алиса"
    INDEX 01 29:13:49
  TRACK 08 AUDIO
    TITLE "Вот так"
    PERFORMER "Алиса"
    INDEX 01 35:10:69
  TRACK 09 AUDIO
    TITLE "Ко мне"
    PERFORMER "Алиса"
    INDEX 01 39:39:52
  TRACK 10 AUDIO
    TITLE "Апрель"
    PERFORMER "Алиса"
    INDEX 01 46:06:69
  TRACK 11 AUDIO
    TITLE "Движение вспять"
    PERFORMER "Алиса"
    INDEX 01 50:38:05
  TRACK 12 AUDIO
    TITLE "День огня"
    PERFORMER "Алиса"
    INDEX 01 55:44:28
  TRACK 13 AUDIO
    TITLE "Капля солнца"
    PERFORMER "Алиса"
    INDEX 01 61:43:13
  TRACK 14 AUDIO
    TITLE "Пульс"
    PERFORMER "Алиса"
    INDEX 01 66:02:16
  TRACK 15 AUDIO
    TITLE "Жги"
    PERFORMER "Алиса"
    INDEX 01 69:43:63
--
[Профиль] [ЛС]
Кто просматривает тему:

Показать сообщения:    

Текущее время: Сегодня 20:34

Часовой пояс: GMT



Вы не можете начинать темы
Вы не можете отвечать на сообщения
Вы не можете редактировать свои сообщения
Вы не можете удалять свои сообщения
Вы не можете голосовать в опросах
Вы не можете прикреплять файлы к сообщениям
Вы не можете скачивать файлы