Алиса знает, что делать! [S01] (2012-2015) WEB-DL 1080p от -merci-

 
Автор Сообщение

достали все ®

Пол:

Стаж: 1 год 8 месяцев

Сообщений: 6545



Награды: 12 (Подробнее)

Mega Releaser 3 (Количество: 1) Top Releaser 3 (Количество: 1) Top Releaser 4 (Количество: 1)
Торрент-статистика

Создавать темы 21-Мар-2016 08:10

[Цитировать]

Оригинальное название: Алиса знает, что делать!
Год выпуска: 2013 - 2015
Страна: Россия, Базелевс
Жанр: Мультсериал, фантастика, фэнтези, приключения
Продолжительность: 24 ~ 00:26:00
Перевод: Не требуется
Сезон: 1 (полный)
Режиссёр: Игорь Ковалев, Ольга Баулина
Роли озвучивали: Дарья Мельникова, Мирослава Карпович, Армен Джигарханян, Анна Ардова, Дмитрий Назаров, Алексей Колган, Ирина Гришина, Валерий Сторожик
Описание: Фантастические приключения Алисы и четверки ее друзей — 12-летних школьников — разворачиваются в будущем. 2093 год, дети все так же посещают школу, вот только добираются туда на летающих роликах, и учитель у них по всем предметам один, к тому же, робот. А за стенами школы — удивительный мир, полный космических путешествий, увлекательных открытий и, конечно, коварных злодеев межгалактического масштаба, остановить которых по силам только неунывающей и отважной Алисе! Путешествуя по галактике, герои столкнутся не только с вселенским злом, но и обретут настоящих друзей. У Алисы появится домашний любимец с планеты Верум — истинокс по кличке Пупер. Он — представитель редкого вида животных, обладающих даром коллективного предсказания. Малыш-истинокс, которого Алиса спасает в одной из серий, очень привязывается к своей хозяйке и становится её постоянным спутником...
Дружба и предательство, первая любовь и одиночество — главные герои столкнутся с различными жизненными ситуациями и научатся их преодолевать. В каждой серии их ждет новое опасное приключение!-Доп. информация:
Эпизоды (21-24) с фразой "продолжение следует" заменены на цельные.
Теперь все эпизоды (01-24) - цельные.
Семпл-Формат: MKV
Качество: WEB-DL 1080p
Видео: AVC; [email protected]/* */; 1920х1080 (16:9); 25,000 fps; 4880 Kbps;
Аудио: AC-3; 2.0; 192 Kbps; 48,0 KHz
Субтитры: Отсутствуют

Список серий

01. Тайна последнего истинокса
02. Опасные иллюзии
03. Капитаны
04. Равновесие
05. Мозги прочь!
06. Оракул на пенсии
07. Игры без правил
08. Песенный поединок
09. Взрывные детишки
10. Золотые балуны
11. Заложники Дибалы
12. Совершенство
13. Воскресная уклонистка
14. 'Не родись красивым'!
15. Энергия прошлого
16. Устаревшие модели
17. Долой креатив!
18. Гуманитарная помощь
19. Подмена растронаса
20. Старики разбойники
21. Зелёная месть
22. Льстец, льстец
23. Наука юмора
24. Даже не думай!

MI

19. Подмена растронаса. WEB-DL.1080p.-merci-.mkv
Format : Matroska
Format version : Version 2
File size : 962 MiB
Duration : 25mn 59s
Overall bit rate : 5 175 Kbps
Movie name : Алиса знает, что делать! / Россия / 2013-2015 / - merci -
Encoded date : UTC 2015-08-03 17:15:56
Writing application : mkvmerge v5.8.0 ('No Sleep / Pillow') built on Sep 2 2012 15:37:04
Writing library : libebml v1.2.3 + libmatroska v1.3.0
Video
ID : 1
Format : AVC
Format/Info : Advanced Video Codec
Format profile : High@L4
Format settings, CABAC : Yes
Format settings, ReFrames : 2 frames
Codec ID : V_MPEG4/ISO/AVC
Duration : 25mn 59s
Bit rate : 4 880 Kbps
Width : 1 920 pixels
Height : 1 080 pixels
Display aspect ratio : 16:9
Frame rate mode : Constant
Frame rate : 25.000 fps
Color space : YUV
Chroma subsampling : 4:2:0
Bit depth : 8 bits
Scan type : Progressive
Bits/(Pixel*Frame) : 0.094
Stream size : 907 MiB (94%)
Title : 19. Подмена растронаса. WEB-DL.1080p.x264.-merci-
Language : Russian
Default : Yes
Forced : No
Color range : Limited
Color primaries : BT.709
Transfer characteristics : BT.709
Matrix coefficients : BT.709
Audio
ID : 2
Format : AC-3
Format/Info : Audio Coding 3
Mode extension : CM (complete main)
Format settings, Endianness : Big
Codec ID : A_AC3
Duration : 25mn 59s
Bit rate mode : Constant
Bit rate : 192 Kbps
Channel(s) : 2 channels
Channel positions : Front: L R
Sampling rate : 48.0 KHz
Compression mode : Lossy
Delay relative to video : 24ms
Stream size : 35.7 MiB (4%)
Title : rus
Language : Russian
Default : Yes
Forced : No

Скриншоты

Релиз от: -merci-
[Профиль] [ЛС]
Показать сообщения:    

Текущее время: Сегодня 12:33

Часовой пояс: GMT



Вы не можете начинать темы
Вы не можете отвечать на сообщения
Вы не можете редактировать свои сообщения
Вы не можете удалять свои сообщения
Вы не можете голосовать в опросах
Вы не можете прикреплять файлы к сообщениям
Вы не можете скачивать файлы