Алиса в стране чудес / Аліса в країні чудес (Максим Паперник) [2014, Украина, Музыкальный фильм, DVB] + Original Rus

 
Автор Сообщение

TorrentFilm ®

Пол:

Стаж: 2 года

Сообщений: 7741



Награды: Нет

Торрент-статистика

Создавать темы 04-Янв-2015 00:01

[Цитировать]

Алиса в стране чудес / Аліса в країні чудес
Страна: Украина
Жанр: Музыкальный фильм
Год выпуска: 2014
Продолжительность: 01:29:48
Перевод: Не требуется
Cубтитры: нет
Оригинальная аудиодорожка: русский
Режиссер: Максим Паперник
В ролях: Светлана Тарабарова, Анастасия Стоцкая, Евгений Никишин, Сергей Писаренко, Вячеслав Соломка, Потап, Анастасия Каменских, Лайма Вайкуле, Александр Кривошапко, Виталий Козловский, Дмитрий Коляденко, Джамала, Ирина Билык, Андрей Данилко, Фёдор Гуринец
Описание: Новогодний мюзикл по мотивам всем известного произведения Льюиса Кэрролла. Создатели проекта решили не придерживаться классического сюжета, сохранив лишь самых узнаваемых персонажей. По замыслу сценаристов Алиса бежит от реальности, попадает в сказку и там находит свою любовь...

Качество: DVB
Контейнер: MPEG
Видео: MPEG 768х576 @ 720x576 (4:3) 25.00fps ~4473 Kbps (0.431 bit/pixel)
Аудио: MPEG Audio 48000Hz 1 channels 192 Кбит/сек
Сторонней рекламы нет!

MediaInfo

ОбщееПолное имя : H:\Алиса в стране чудес DVB_by_Серый1779.mpgФормат : MPEG-PSРазмер файла : 2,98 ГбайтПродолжительность : 1 ч. 29 м.Общий поток : 4760 Кбит/сек
ВидеоИдентификатор : 224 (0xE0)Формат : MPEG VideoВерсия формата : Version 2Профиль формата : Main@MainПараметр BVOP формата : ДаПараметр матрицы формата : По умолчаниюПараметры GOP формата : M=1, N=36Продолжительность : 1 ч. 29 м.Вид битрейта : ПеременныйБитрейт : 4473 Кбит/секНоминальный битрейт : 15,0 Мбит/секШирина : 720 пикс.Высота : 576 пикс.Соотношение сторон : 4:3Частота кадров : 25,000 кадр/секСтандарт вещания : PALЦветовое пространство : YUVПодвыборка цветности : 4:2:0Битовая глубина : 8 битТип развёртки : ЧересстрочнаяПорядок развёртки : Верхнее поле первоеМетод сжатия : С потерямиБит/(Пиксели*Кадры) : 0.431Размер потока : 2,80 Гбайт (94%)
АудиоИдентификатор : 192 (0xC0)Формат : MPEG AudioВерсия формата : Version 1Профиль формата : Layer 2Продолжительность : 1 ч. 29 м.Вид битрейта : ПостоянныйБитрейт : 192 Кбит/секКаналы : 1 каналЧастота : 48,0 КГцМетод сжатия : С потерямиРазмер потока : 123 Мбайт (4%)
Запись и монтаж:
Раздача группы:

Скриншот c названием фильма

Скриншоты

[Профиль] [ЛС]
Показать сообщения:    

Текущее время: Сегодня 01:28

Часовой пояс: GMT



Вы не можете начинать темы
Вы не можете отвечать на сообщения
Вы не можете редактировать свои сообщения
Вы не можете удалять свои сообщения
Вы не можете голосовать в опросах
Вы не можете прикреплять файлы к сообщениям
Вы не можете скачивать файлы