Алиса в стране чудес / Аліса в країні чудес (Максим Паперник) [2014, Украина, Музыкальный фильм, SATRip] + Original Rus

 
Автор Сообщение

TorrentFilm ®

Пол:

Стаж: 2 года

Сообщений: 7741



Награды: Нет

Торрент-статистика

Создавать темы 04-Янв-2015 00:01

[Цитировать]

Алиса в стране чудес / Аліса в країні чудес
Страна: Украина
Жанр: Музыкальный фильм
Год выпуска: 2014
Продолжительность: 01:30:03
Перевод: Не требуется
Cубтитры: нет
Оригинальная аудиодорожка: русский
Режиссер: Максим Паперник
В ролях: Светлана Тарабарова, Анастасия Стоцкая, Евгений Никишин, Сергей Писаренко, Вячеслав Соломка, Потап, Анастасия Каменских, Лайма Вайкуле, Александр Кривошапко, Виталий Козловский, Дмитрий Коляденко, Джамала, Ирина Билык, Андрей Данилко, Фёдор Гуринец
Описание: Новогодний мюзикл по мотивам всем известного произведения Льюиса Кэрролла. Создатели проекта решили не придерживаться классического сюжета, сохранив лишь самых узнаваемых персонажей. По замыслу сценаристов Алиса бежит от реальности, попадает в сказку и там находит свою любовь...
Сэмпл: https://cloud.mail.ru/public/d157dc268016/%D0%90%D0...%D0%BC%D0%B1.avi
Качество видео: SATRip
Формат видео: AVI
Видео: XviD, 720x400, 25.00fps, ~1973 Кбит/сек, 0.269 bit/pixel
Аудио: MP3, 48000 Hz, stereo, 192 Кбит/сек

MediaInfo

Общее
Полное имя : U:\Сериалы (2015)\Алиса в стране чудес.2014.XviD.SATRip.by.simka_1400 МБ.avi
Формат : AVI
Формат/Информация : Audio Video Interleave
Размер файла : 1,37 Гбайт
Продолжительность : 1 ч. 30 м.
Общий поток : 2175 Кбит/сек
Программа кодирования : VirtualDubMod 1.5.10.3 | www.virtualdub-fr.org || (build 2550/release)
Библиотека кодирования : VirtualDubMod build 2550/release
Видео
Идентификатор : 0
Формат : MPEG-4 Visual
Профиль формата : Advanced Simple@L5
Параметр BVOP формата : 1
Параметр QPel формата : Нет
Параметр GMC формата : Без точки перехода
Параметр матрицы формата : Default (MPEG)
Идентификатор кодека : XVID
Идентификатор кодека/Подсказка : XviD
Продолжительность : 1 ч. 30 м.
Битрейт : 1973 Кбит/сек
Ширина : 720 пикселей
Высота : 400 пикселей
Соотношение сторон : 16:9
Частота кадров : 25,000 кадров/сек
Цветовое пространство : YUV
Субдискретизация насыщенности : 4:2:0
Битовая глубина : 8 бит
Тип развёртки : Прогрессивная
Метод сжатия : С потерями
Бит/(Пиксели*Кадры) : 0.274
Размер потока : 1,24 Гбайт (91%)
Библиотека кодирования : XviD 1.2.1 (UTC 2008-12-04)
Аудио
Идентификатор : 1
Формат : MPEG Audio
Версия формата : Version 1
Профиль формата : Layer 3
Режим : Joint stereo
Расширение режима : MS Stereo
Идентификатор кодека : 55
Идентификатор кодека/Подсказка : MP3
Продолжительность : 1 ч. 30 м.
Вид битрейта : Постоянный
Битрейт : 192 Кбит/сек
Каналы : 2 канала
Частота : 48,0 КГц
Метод сжатия : С потерями
Размер потока : 124 Мбайт (9%)
Выравнивание : Соединение по промежуткам
Продолжительность промежутка : 40 мс. (1,00 видеокадр)
Время предзагрузки промежутка : 504 мс.
Библиотека кодирования : LAME3.99r
Настройки программы : -m j -V 4 -q 2 -lowpass 18.6 -b 192

Скриншот c названием фильма


-
Релиз группы::
[Профиль] [ЛС]
Показать сообщения:    

Текущее время: Сегодня 00:36

Часовой пояс: GMT



Вы не можете начинать темы
Вы не можете отвечать на сообщения
Вы не можете редактировать свои сообщения
Вы не можете удалять свои сообщения
Вы не можете голосовать в опросах
Вы не можете прикреплять файлы к сообщениям
Вы не можете скачивать файлы