Алиса в стране чудес в 3Д / Alice in Wonderland 3D (Тим Бёртон / Tim Burton) [2010, фэнтези, приключения, семейный, BDRip-AVC] Half SideBySide / Горизонтальная анаморфная стереопара

 
Автор Сообщение

TorrentFilm ®

Пол:

Стаж: 2 года

Сообщений: 7741



Награды: Нет

Торрент-статистика

Создавать темы 26-Мар-2015 00:01

[Цитировать]

Алиса в стране чудес / Alice in Wonderland- Год выпуска: 2010
Страна: США
Жанр: фэнтези, приключения, семейный
Продолжительность: 01:48:34
Перевод: Профессиональный (дублированный)
Русские субтитры: есть-Режиссер: Тим Бёртон / Tim Burton
В ролях: Миа Васиковска, Джонни Депп, Хелена Бонем Картер, Энн Хэтэуэй, Криспин Гловер, Мэтт Лукас, Стивен Фрай, Майкл Шин, Алан Рикман, Барбара Уиндсор.
Описание: Жизнь 19-летней Алисы Кингсли принимает неожиданный оборот. На викторианской вечеринке, устроенной в её честь, Алисе делает предложение Хэмиш, богатый, но глупый сын лорда и леди Эскот. Не дав ответа, девушка убегает и идёт за кроликом, замеченным ею на лужайке. Кролик как кролик, вот только он одет в камзол и всё время смотрит на карманные часы. Алиса гонится за Белым Кроликом через весь луг и видит, как он исчезает в кроличьей норе. Затем, неожиданно, Алиса падает туда сама, летит вниз по странному, сказочному туннелю и приземляется в круглом зале со множеством дверей. Выпив из бутылки с надписью ВЫПЕЙ МЕНЯ, она уменьшается в размерах, а откусив от пирожного с надписью СЪЕШЬ МЕНЯ — вырастает. Наконец, миновав череду злоключений, Алиса попадает через одну из дверей в чудесный фантастический мир, который его обитатели называют Подземной страной. Там её ждёт целый парад колоритных персонажей: хвастливая Соня, сумасшедший Шляпник, глумливый Чеширский Кот, накурившаяся кальяном гусеница по имени Абессалом, жутковатая Белая Королева и её злобная сестра, Королева Червей, вздорная и раздражительная правительница Подземной страны.
-
  • Формат 3D Half SideBySide | Горизонтальная анаморфная стереопара
-Качество: BDRip-AVC | Контейнер: MKV
Видео: 1920x1080 (16:9), 23.976 fps, x264@L4.0 ~9000 kbps
Аудио 1: Russian 48 kHz, AC3, 3/2 (L,C,R,l,r) + LFE ch, 640.00 kbps | BD CEE
Аудио 2: Ukrainian 48 kHz, AC3, 3/2 (L,C,R,l,r) + LFE ch, 640.00 kbps | BD CEE
Аудио 3: English 48 kHz, AC3, 3/2 (L,C,R,l,r) + LFE ch, 640.00 kbps | BD USA
Субтитры: русские форсированные и полные, украинские полные, английские полные

Инфо

Format : Matroska
File size : 8.28 GiB
Duration : 1h 48mn
Overall bit rate : 10.9 Mbps
Movie name : Alice In Wonderland 2010
Encoded date : UTC 2015-03-15 10:29:06
Writing application : mkvmerge v6.6.0 ('The Edge Of The In Between') built on Dec 1 2013 17:55:00
Writing library : libebml v1.3.0 + libmatroska v1.4.1
Video
ID : 1
Format : AVC
Format/Info : Advanced Video Codec
Format profile : High@L4.0
Format settings, CABAC : Yes
Format settings, ReFrames : 4 frames
Codec ID : V_MPEG4/ISO/AVC
Duration : 1h 48mn
Bit rate : 9 000 Kbps
Width : 1 920 pixels
Height : 1 080 pixels
Display aspect ratio : 16:9
Frame rate : 23.976 fps
Color space : YUV
Chroma subsampling : 4:2:0
Bit depth : 8 bits
Scan type : Progressive
Bits/(Pixel*Frame) : 0.181
Stream size : 6.66 GiB (80%)
Title : 3D HSBS
Writing library : x264 core 98 r1649 c54c47d
Encoding settings : cabac=1 / ref=3 / deblock=1:0:0 / analyse=0x3:0x113 / me=hex / subme=7 / psy=1 / psy_rd=1.00:0.00 / mixed_ref=1 / me_range=16 / chroma_me=1 / trellis=1 / 8x8dct=1 / cqm=0 / deadzone=21,11 / fast_pskip=1 / chroma_qp_offset=-2 / threads=3 / sliced_threads=0 / nr=0 / decimate=1 / interlaced=0 / constrained_intra=0 / bframes=3 / b_pyramid=2 / b_adapt=1 / b_bias=0 / direct=1 / weightb=1 / weightp=2 / keyint=250 / keyint_min=25 / scenecut=40 / intra_refresh=0 / rc_lookahead=40 / rc=2pass / mbtree=1 / bitrate=9000 / ratetol=1.0 / qcomp=0.60 / qpmin=10 / qpmax=51 / qpstep=4 / cplxblur=20.0 / qblur=0.5 / ip_ratio=1.40 / aq=1:1.00
Language : English
Audio #1
ID : 2
Format : AC-3
Format/Info : Audio Coding 3
Mode extension : CM (complete main)
Codec ID : A_AC3
Duration : 1h 48mn
Bit rate mode : Constant
Bit rate : 640 Kbps
Channel(s) : 6 channels
Channel positions : Front: L C R, Side: L R, LFE
Sampling rate : 48.0 KHz
Bit depth : 16 bits
Stream size : 497 MiB (6%)
Title : Dub BD CEE
Language : Russian
Audio #2
ID : 3
Format : AC-3
Format/Info : Audio Coding 3
Mode extension : CM (complete main)
Codec ID : A_AC3
Duration : 1h 48mn
Bit rate mode : Constant
Bit rate : 640 Kbps
Channel(s) : 6 channels
Channel positions : Front: L C R, Side: L R, LFE
Sampling rate : 48.0 KHz
Bit depth : 16 bits
Stream size : 497 MiB (6%)
Title : Dub BD CEE
Language : Ukrainian
Audio #3
ID : 4
Format : AC-3
Format/Info : Audio Coding 3
Mode extension : CM (complete main)
Codec ID : A_AC3
Duration : 1h 48mn
Bit rate mode : Constant
Bit rate : 640 Kbps
Channel(s) : 6 channels
Channel positions : Front: L C R, Side: L R, LFE
Sampling rate : 48.0 KHz
Bit depth : 16 bits
Stream size : 497 MiB (6%)
Title : Original
Language : English
Text #1
ID : 5
Format : UTF-8
Codec ID : S_TEXT/UTF8
Codec ID/Info : UTF-8 Plain Text
Title : Forced
Language : Russian
Text #2
ID : 6
Format : UTF-8
Codec ID : S_TEXT/UTF8
Codec ID/Info : UTF-8 Plain Text
Title : Full
Language : Russian
Text #3
ID : 7
Format : UTF-8
Codec ID : S_TEXT/UTF8
Codec ID/Info : UTF-8 Plain Text
Title : Full
Language : Ukrainian
Text #4
ID : 8
Format : UTF-8
Codec ID : S_TEXT/UTF8
Codec ID/Info : UTF-8 Plain Text
Title : Full
Language : English
Menu
00:00:00.000 : :1. Dreamers
00:04:24.890 : :2. Miss Kingsleigh Is Distracted
00:10:36.886 : :3. Down the Rabbit Hole
00:18:13.509 : :4. The Wrong Alice
00:24:44.316 : :5. The Red Queen
00:28:41.345 : :6. Cheshire, The Hare and the Hatter
00:36:51.126 : :7. "I Make The Path"
00:46:15.731 : :8. Um from Umbradge
00:52:44.787 : :9. Freeing the Vorpal Sword
01:04:05.050 : :10. Escape to Marmoreal
01:10:02.198 : :11. Mutiny
01:15:36.490 : :12. The White Queen's Champion
01:23:39.264 : :13. Frabjous Day
01:34:12.689 : :14. Returning Home
01:36:58.354 : :15. Alice's Decision
01:40:12.131 : :16. End Credits

Скриншоты

[Профиль] [ЛС]
Показать сообщения:    

Текущее время: Сегодня 02:16

Часовой пояс: GMT



Вы не можете начинать темы
Вы не можете отвечать на сообщения
Вы не можете редактировать свои сообщения
Вы не можете удалять свои сообщения
Вы не можете голосовать в опросах
Вы не можете прикреплять файлы к сообщениям
Вы не можете скачивать файлы