Алиса в Зазеркалье / Alice Through the Looking Glass (2016) BDRip 720p от HQCLUB | Лицензия

 
Автор Сообщение

Russian Mafia ®

Пол:

Стаж: 1 год 8 месяцев

Сообщений: 4256



Награды: 10 (Подробнее)

Mega Seeder 2 (Количество: 1) Mega Seeder 1 (Количество: 1) Top Releaser 4 (Количество: 1)
Торрент-статистика

Создавать темы 10-Окт-2016 08:39

[Цитировать]

Информация о фильме
Название: Алиса в Зазеркалье
Оригинальное название: Alice Through the Looking Glass
Год выхода: 2016
Жанр: Фэнтези, Приключения, Семейный
В ролях: Джонни Депп (Mad Hatter), Миа Васиковска (Alice Kingsleigh), Хелена Бонем Картер (Iracebeth), Энн Хэтэуэй (Mirana), Саша Барон Коэн (Time), Рис Иванс (Zanik Hightopp), Мэтт Лукас (Tweedledee / Tweedledum), Линдси Дункан (Helen Kingsleigh), Лео Билл (Hamish), Джеральдин Джеймс (Lady Ascot), Эндрю Скотт (Dr. Addison Bennett), Ричард Армитедж (King Oleron)
Режиссёр: Джеймс Бобин / James Bobin
О фильме:
На этот раз главной героине предстоит отправиться в путешествие во времени, полное неожиданностей и ярких открытий, чтобы спасти своего друга, Безумного Шляпника.«Весна - самое время сойти с ума»
Релиз от -
Автор рипа: Rensler
Выпущено: США, Великобритания
Студия: Legend3D, Roth Films, Team Todd, Tim Burton Productions, Walt Disney Pictures
Продолжительность: 01:52:58
Перевод:
• Профессиональный (полное дублирование) BD CEE
Оригинальная аудиодорожка: Английская
Субтитры: Русские (полные BD), Английские (полные BD)
Главы: Сохранены чаптеры с оригинального Blu-ray Disc
Файл:
Формат: MKV
Качество: BDRip 720p (источник: BLUEBIRD / Blu-ray Disc)
Видео: 1280x694 (1,85:1) at 23.976, x264@L4.1 ~ 7292 kbps avg, 0.342 bit/pixel
Аудио#1: 48 kHz/16-bit, AC3 Dolby Digital, 3/2 (L,C,R,l,r) + LFE ch, ~ 640 kbps avg | RUS, Blu-ray «WDSSPR»
Аудио#2: 48 kHz/16-bit, AC3 Dolby Digital, 3/2 (L,C,R,l,r) + LFE ch, ~ 640 kbps avg | ENG
Размер: 6,76 GB (DVD-9)
Скачать: Семпл

MI@logx.264

Цитатаlogx.264 писал:x264 [info]: frame I:2083 Avg QP:15.26 size:226842
x264 [info]: frame P:37373 Avg QP:16.92 size: 72285
x264 [info]: frame B:123052 Avg QP:19.03 size: 24387
x264 [info]: consecutive B-frames: 2.6% 2.1% 14.1% 23.5% 18.2% 34.5% 3.4% 1.0% 0.6%
x264 [info]: ref P L0: 52.2% 11.2% 15.4% 7.3% 5.3% 3.8% 2.9% 1.7% 0.1% 0.0%
ЦитатаMediaInfo писал:Уникальный идентификатор : 200401894017068019324138595545133390163 (0x96C400385B614193965D2F5907909953)
Полное имя : K:RG RenslerRip' Release HQCLUBAlisa.v.Zazerkale.2016.BluRay.720p.Rus.Eng.-HQCLUB (1).mkv
Формат : Matroska
Версия формата : Version 4 / Version 2
Размер файла : 6,76 Гбайт
Продолжительность : 1 ч. 52 м.
Общий поток : 8571 Кбит/сек
Название фильма : Алиса в Зазеркалье / Alice Through the Looking Glass (2016) Blu-ray 720p
Дата кодирования : UTC 2016-10-09 19:25:16
Программа кодирования : mkvmerge v8.3.0 ('Over the Horizon') 64bit
Библиотека кодирования : libebml v1.3.1 + libmatroska v1.4.2
Attachements : Cover.png
Видео
Идентификатор : 1
Формат : AVC
Формат/Информация : Advanced Video Codec
Профиль формата : High@L4.1
Параметр CABAC формата : Да
Параметр ReFrames формата : 8 кадров
Идентификатор кодека : V_MPEG4/ISO/AVC
Продолжительность : 1 ч. 52 м.
Битрейт : 7292 Кбит/сек
Ширина : 1280 пикселей
Высота : 694 пикселя
Соотношение сторон : 1,85:1
Режим частоты кадров : Постоянный
Частота кадров : 23,976 кадра/сек
Цветовое пространство : YUV
Субдискретизация насыщенности : 4:2:0
Битовая глубина : 8 бит
Тип развёртки : Прогрессивная
Бит/(Пиксели*Кадры) : 0.342
Размер потока : 5,62 Гбайт (83%)
Заголовок : Release by Rensler
Библиотека кодирования : x264 core 148 r2692 64f4e24
Настройки программы : cabac=1 / ref=8 / deblock=1:-3:-3 / analyse=0x3:0x113 / me=umh / subme=11 / psy=1 / psy_rd=1.04:0.00 / mixed_ref=1 / me_range=48 / chroma_me=1 / trellis=2 / 8x8dct=1 / cqm=0 / deadzone=21,11 / fast_pskip=0 / chroma_qp_offset=-2 / threads=3 / lookahead_threads=1 / sliced_threads=0 / nr=0 / decimate=0 / interlaced=0 / bluray_compat=0 / constrained_intra=0 / bframes=8 / b_pyramid=2 / b_adapt=2 / b_bias=0 / direct=3 / weightb=1 / open_gop=0 / weightp=2 / keyint=230 / keyint_min=23 / scenecut=40 / intra_refresh=0 / rc_lookahead=40 / rc=2pass / mbtree=0 / bitrate=7292 / ratetol=1.0 / qcomp=0.60 / qpmin=0 / qpmax=69 / qpstep=4 / cplxblur=20.0 / qblur=0.5 / vbv_maxrate=50000 / vbv_bufsize=62500 / nal_hrd=none / filler=0 / ip_ratio=1.40 / pb_ratio=1.30 / aq=2:0.80
Язык : English
Default : Да
Forced : Нет
Аудио #1
Идентификатор : 2
Формат : AC-3
Формат/Информация : Audio Coding 3
Расширение режима : CM (complete main)
Параметр Endianness формата : Big
Идентификатор кодека : A_AC3
Продолжительность : 1 ч. 52 м.
Вид битрейта : Постоянный
Битрейт : 640 Кбит/сек
Каналы : 6 каналов
Расположение каналов : Front: L C R, Side: L R, LFE
Частота : 48,0 КГц
Метод сжатия : С потерями
Размер потока : 517 Мбайт (7%)
Заголовок : BD CCE
Язык : Russian
Default : Да
Forced : Нет
Аудио #2
Идентификатор : 3
Формат : AC-3
Формат/Информация : Audio Coding 3
Расширение режима : CM (complete main)
Параметр Endianness формата : Big
Идентификатор кодека : A_AC3
Продолжительность : 1 ч. 52 м.
Вид битрейта : Постоянный
Битрейт : 640 Кбит/сек
Каналы : 6 каналов
Расположение каналов : Front: L C R, Side: L R, LFE
Частота : 48,0 КГц
Метод сжатия : С потерями
Размер потока : 517 Мбайт (7%)
Заголовок : Original
Язык : English
Default : Нет
Forced : Нет
Текст #1
Идентификатор : 4
Формат : UTF-8
Идентификатор кодека : S_TEXT/UTF8
Идентификатор кодека/Информация : UTF-8 Plain Text
Заголовок : Forced
Язык : Russian
Default : Да
Forced : Нет
Текст #2
Идентификатор : 5
Формат : UTF-8
Идентификатор кодека : S_TEXT/UTF8
Идентификатор кодека/Информация : UTF-8 Plain Text
Заголовок : Full
Язык : Russian
Default : Нет
Forced : Нет
Текст #3
Идентификатор : 6
Формат : UTF-8
Идентификатор кодека : S_TEXT/UTF8
Идентификатор кодека/Информация : UTF-8 Plain Text
Заголовок : Forced
Язык : English
Default : Нет
Forced : Нет
Текст #4
Идентификатор : 7
Формат : UTF-8
Идентификатор кодека : S_TEXT/UTF8
Идентификатор кодека/Информация : UTF-8 Plain Text
Заголовок : Full
Язык : English
Default : Нет
Forced : Нет
Текст #5
Идентификатор : 8
Формат : UTF-8
Идентификатор кодека : S_TEXT/UTF8
Идентификатор кодека/Информация : UTF-8 Plain Text
Заголовок : SDH
Язык : English
Default : Нет
Forced : Нет
Текст #6
Идентификатор : 9
Формат : UTF-8
Идентификатор кодека : S_TEXT/UTF8
Идентификатор кодека/Информация : UTF-8 Plain Text
Заголовок : SDH colored
Язык : English
Default : Нет
Forced : Нет
Меню
00:00:00.000 : en:1. Navigating The Wonder
00:04:33.189 : en:2. Return Home
00:07:24.235 : en:3. Canceled Plans
00:12:07.434 : en:4. Through The Looking Glass
00:16:39.789 : en:5. Old Friends
00:22:47.615 : en:6. Chronosphere
00:24:59.623 : en:7. Time's Castle
00:30:18.232 : en:8. The Grand Clock
00:35:29.792 : en:9. Arrival Of The Red Queen
00:41:32.988 : en:10. Ocean Of Time
00:45:20.050 : en:11. Coronation
00:51:35.675 : en:12. Warning The Hatter
00:54:11.038 : en:13. Tea Party With Time
00:57:40.122 : en:14. Tart Trouble
01:04:18.521 : en:15. "The Stroke Of Six"
01:09:18.988 : en:15. Escape From The Asylum
01:12:46.278 : en:17. Horunvendush Day
01:18:07.390 : en:18. Red Queen's Lair
01:23:20.244 : en:19. Changing The Past
01:27:34.747 : en:10. Running Out Of Time
01:32:15.947 : en:21. Family Reunion
01:36:40.461 : en:22. Goodbyes
01:40:12.588 : en:23. Setting Sail
01:43:14.813 : en:24. End Credits

[Профиль] [ЛС]
Показать сообщения:    

Текущее время: Сегодня 02:24

Часовой пояс: GMT



Вы не можете начинать темы
Вы не можете отвечать на сообщения
Вы не можете редактировать свои сообщения
Вы не можете удалять свои сообщения
Вы не можете голосовать в опросах
Вы не можете прикреплять файлы к сообщениям
Вы не можете скачивать файлы