Алиса в Зазеркалье / Alice Through the Looking Glass (2016) BDRip 1080p | Лицензия

 
Автор Сообщение

достали все ®

Пол:

Стаж: 1 год 8 месяцев

Сообщений: 6613



Награды: 12 (Подробнее)

Mega Seeder 1 (Количество: 1) Mega Releaser 3 (Количество: 1) За внесенный вклад в развитие сайта (Количество: 1)
Торрент-статистика

Создавать темы 05-Окт-2016 13:58

[Цитировать]

Информация о фильме
Название: Алиса в Зазеркалье
Оригинальное название: Alice Through the Looking Glass
Год выхода: 2016
Жанр: фэнтези, приключения, семейный
Режиссер: Джеймс Бобин
В ролях: Миа Васиковска, Джонни Депп, Хелена Бонем Картер, Энн Хэтэуэй, Саша Барон Коэн, Рис Иванс, Мэтт Лукас, Линдси Дункан, Лео Билл, Джеральдин Джеймс
О фильме:
Алисе снятся странные сны, в которых она видит своих друзей из Волшебной страны. Когда-то она смогла попасть через зеркало в волшебное Зазеркалье. После опасных, но увлекательных приключений она вернулась домой, но воспоминания о волшебной стране остались в её памяти. Прошло время, Алиса выросла, но её тревожат сны. Ей пора возвращаться в Зазеркалье!
В Волшебной стране поселилось зло – отъявленный злодей Время стал угрозой для всего Зазеркалья. Он имеет власть над временем и собирается это умение использовать во зло. Следуя зову сердца, Алиса возвращается в Зазеркалье. Она сразу же встречает своих старых знакомых - Безумного Шляпника и Мартовского Зайца, которые надеялись на её появление. Ведь только Алиса способна справиться со злом. Разумеется, опираясь на помощь старых друзей…

Страна: США, Великобритания
Студия: Legend3D, Roth Films, Team Todd, Tim Burton Productions, Walt Disney Pictures
Продолжительность: 01:52:57
Перевод: Профессиональный (дублированный) Blu-ray CEE
Релиз:
Файл
Формат: Matroska
Видео: 1920x1040 at 23.976 fps, x264@L4.1, ~16600 kbps avg
Aудио#1: Russian: 48 kHz, AC3, 3/2 (L,C,R,l,r) + LFE ch, ~640 kbps avg |Дубляж, Blu-ray CEE|
Aудио#2: Ukrainian: 48 kHz, AC3, 3/2 (L,C,R,l,r) + LFE ch, ~384 kbps avg |Дубляж, iTunes|
Aудио#3: English: 48 kHz, DTS, 3/2 (L,C,R,l,r) + LFE ch, ~1509 kbps avg
Aудио#4: English: 48 kHz, AC3, 2/0 (L,R) ch, ~192.00 kbps avg |Filmmaker Audio Commentary by Director James Bobin|
Субтитры: Russian (Forced, iTunes), Russian (iTunes), Ukrainian (Forced, iTunes), English (Forced, iTunes), English (iTunes), English (Commentary)
***Сохранены и подписаны оригинальные главы как на Blu-ray.
***Видеоряд - VietHD!

Знаете ли вы, что...

Первое появление Саши Барона Коэна в фильмах компании «Walt Disney».
Рис Иванс и Стивен Фрай играли брата Шерлока Холмса по имени Майкрофт: Иванс в телесериале «Элементарно», Фрай — в фильме Гая Ричи 2011 года «Шерлок Холмс: Игра теней».
Последняя роль Алана Рикмана (1946-2016).
Очередной проект, в котором принимают участие Саша Барон Коэн и режиссёр Джеймс Бобин. Они вместе работали над фильмом «Али Джи» и придумывали для него персонажи.
Саша Барон Коэн, который сыграл Время, и Мэтт Лукас, исполнитель ролей Труляля и Траляля, играли Тенардье в разных экранизациях «Отверженных» — Коэн в драматическом мюзикле Тома Хупера (2012), а Лукас — на концерте в 2010 году, посвящённом 25-летию выхода на экраны фильма Клода Лелуша с Жаном-Полем Бельмондо в главной роли.
Последняя роль в кино Алана Рикмана, который скончался за четыре месяца до премьеры. Рикман сыграл бабочку, которая в фильме Тима Бёртона «Алиса в Стране чудес» (2010) была ещё гусеницей.
Седьмой и последний фильм, в котором вместе снялись Алан Рикман и Хелена Бонем-Картер.
Джонни Депп, Хелена Бонем-Картер, Алан Рикман, Саша Барон Коэн и Тимоти Сполл играли в фильме Тима Бёртона «Суинни Тодд, демон-парикмахер с Флит-стрит» (2007).
Девятый совместный фильм Тима Бёртона и Джонни Деппа. Актёр снимался в фильмах «Эдвард Руки-ножницы» (1990), «Эд Вуд» (1994), «Сонная лощина» (1999), «Чарли и шоколадная фабрика» (2005), «Труп невесты» (2005), «Суинни Тодд, демон-парикмахер с Флит-стрит» (2007), «Алиса в Стране чудес» (2010) и «Мрачные тени» (2012).
Кинокомпания «Walt Disney Studios Motion Pictures» посвятила фильм памяти актёра Алана Рикмана.
Рис Иванс, который играет отца Безумного Шляпника, на четыре года моложе Джонни Деппа, исполнившего роль его сына.
В фильме занято четыре актёра, игравшие в фильмах о Шерлоке Холмсе. Эндрю Скотт сыграл Джеймса Мориарти в телесериале «Шерлок», снятом для канала«BBC Wales» (2010), там же в одной из серий роль леди Смолвуд сыграла Линдси Дункан, Рис Иванс исполнил роль Майкрофта Холмса в телесериале «Элементарно» (2012), а Стивен Фрай сыграл эту роль в детективном боевике Гая Ричи «Шерлок Холмс: Игра теней» (2011).
Работа над фильмом была завершена 26 января 2015 года.
Время в исполнении Саши Барона Коэна дарит Ирацибетте в исполнении Хелены Бонэм-Картер механическое устройство, изображающее казнь через отсечение головы. Юмор ситуации можно усмотреть в том, что первой главной ролью актрисы в кинематографе была роль леди Джейн в одноимённой исторической драме Тревора Нанна (1986), где её героиню обезглавили по обвинению в государственной измене.

MI

Общее
Уникальный идентификатор : 182429027644516414621000718411559719268 (0x893E8D7E2E0C4EA9BDBA2A363225D164)
Полное имя : Alice.Through.the.Looking.Glass.2016.1080p.BluRay.Rus.Ukr.2xEng.HDCLUB.mkv
Формат : Matroska
Версия формата : Version 2
Размер файла : 15,6 Гбайт
Продолжительность : 1 ч. 52 м.
Общий поток : 19,7 Мбит/сек
Название фильма : Alice Through the Looking Glass (2016) - Release for HDCLUB
Дата кодирования : UTC 2016-10-05 08:23:21
Программа кодирования : mkvmerge v3.4.0 ('Rapunzel') built on May 15 2010 09:38:20
Библиотека кодирования : libebml v0.8.0 + libmatroska v0.9.0
Видео
Идентификатор : 1
Формат : AVC
Формат/Информация : Advanced Video Codec
Профиль формата : High@L4.1
Параметр CABAC формата : Да
Параметр ReFrames формата : 4 кадра
Идентификатор кодека : V_MPEG4/ISO/AVC
Продолжительность : 1 ч. 52 м.
Битрейт : 16,6 Мбит/сек
Ширина : 1920 пикселей
Высота : 1040 пикселей
Соотношение сторон : 1,85:1
Режим частоты кадров : Постоянный
Частота кадров : 23,976 кадра/сек
Цветовое пространство : YUV
Субдискретизация насыщенности : 4:2:0
Битовая глубина : 8 бит
Тип развёртки : Прогрессивная
Бит/(Пиксели*Кадры) : 0.347
Размер потока : 13,1 Гбайт (84%)
Заголовок : Alice Through the Looking Glass (2016) - Release for HDCLUB
Библиотека кодирования : x264 core 148 r2705kMod 3f5ed56
Настройки программы : cabac=1 / ref=4 / deblock=1:-3:-3 / analyse=0x3:0x133 / me=umh / subme=10 / psy=1 / fade_compensate=0.00 / psy_rd=1.00:0.00 / mixed_ref=1 / me_range=24 / chroma_me=1 / trellis=2 / 8x8dct=1 / cqm=0 / deadzone=21,11 / fast_pskip=0 / chroma_qp_offset=-2 / threads=56 / lookahead_threads=8 / sliced_threads=0 / nr=0 / decimate=0 / interlaced=0 / bluray_compat=0 / constrained_intra=0 / fgo=0 / bframes=8 / b_pyramid=2 / b_adapt=2 / b_bias=0 / direct=3 / weightb=1 / open_gop=0 / weightp=2 / keyint=250 / keyint_min=23 / scenecut=40 / intra_refresh=0 / rc_lookahead=60 / rc=crf / mbtree=0 / crf=17.5000 / qcomp=0.65 / qpmin=0 / qpmax=69 / qpstep=4 / vbv_maxrate=62500 / vbv_bufsize=78125 / crf_max=0.0 / nal_hrd=none / filler=0 / ip_ratio=1.30 / pb_ratio=1.20 / aq=3:0.75
Язык : English
Default : Да
Forced : Нет
Коэффициенты матрицы : BT.709
Аудио #1
Идентификатор : 2
Формат : AC-3
Формат/Информация : Audio Coding 3
Расширение режима : CM (complete main)
Параметр Endianness формата : Big
Идентификатор кодека : A_AC3
Продолжительность : 1 ч. 52 м.
Вид битрейта : Постоянный
Битрейт : 640 Кбит/сек
Каналы : 6 каналов
Расположение каналов : Front: L C R, Side: L R, LFE
Частота : 48,0 КГц
Битовая глубина : 16 бит
Метод сжатия : С потерями
Размер потока : 517 Мбайт (3%)
Заголовок : AC3 5.1 @ 640 kbps - DUB, Blu-ray CEE
Язык : Russian
Default : Да
Forced : Нет
Аудио #2
Идентификатор : 3
Формат : AC-3
Формат/Информация : Audio Coding 3
Расширение режима : CM (complete main)
Параметр Endianness формата : Big
Идентификатор кодека : A_AC3
Продолжительность : 1 ч. 52 м.
Вид битрейта : Постоянный
Битрейт : 384 Кбит/сек
Каналы : 6 каналов
Расположение каналов : Front: L C R, Side: L R, LFE
Частота : 48,0 КГц
Битовая глубина : 16 бит
Метод сжатия : С потерями
Размер потока : 310 Мбайт (2%)
Заголовок : AC3 5.1 @ 384 kbps - DUB, iTunes
Язык : Ukrainian
Default : Нет
Forced : Нет
Аудио #3
Идентификатор : 4
Формат : DTS
Формат/Информация : Digital Theater Systems
Режим : 16
Параметр Endianness формата : Big
Идентификатор кодека : A_DTS
Продолжительность : 1 ч. 52 м.
Вид битрейта : Постоянный
Битрейт : 1509 Кбит/сек
Каналы : 6 каналов
Расположение каналов : Front: L C R, Side: L R, LFE
Частота : 48,0 КГц
Битовая глубина : 24 бит
Метод сжатия : С потерями
Задержка видео : 11 мс.
Размер потока : 1,19 Гбайт (8%)
Заголовок : DTS 5.1 @ 1536 kbps
Язык : English
Default : Нет
Forced : Нет
Аудио #4
Идентификатор : 5
Формат : AC-3
Формат/Информация : Audio Coding 3
Расширение режима : CM (complete main)
Параметр Endianness формата : Big
Идентификатор кодека : A_AC3
Продолжительность : 1 ч. 52 м.
Вид битрейта : Постоянный
Битрейт : 192 Кбит/сек
Каналы : 2 канала
Расположение каналов : Front: L R
Частота : 48,0 КГц
Битовая глубина : 16 бит
Метод сжатия : С потерями
Размер потока : 155 Мбайт (1%)
Заголовок : AC3 2.0 @ 192 kbps - Filmmaker Audio Commentary by Director James Bobin
Язык : English
Default : Нет
Forced : Нет
Текст #1
Идентификатор : 6
Формат : UTF-8
Идентификатор кодека : S_TEXT/UTF8
Идентификатор кодека/Информация : UTF-8 Plain Text
Заголовок : Forced, iTunes
Язык : Russian
Default : Да
Forced : Нет
Текст #2
Идентификатор : 7
Формат : UTF-8
Идентификатор кодека : S_TEXT/UTF8
Идентификатор кодека/Информация : UTF-8 Plain Text
Заголовок : iTunes
Язык : Russian
Default : Нет
Forced : Нет
Текст #3
Идентификатор : 8
Формат : UTF-8
Идентификатор кодека : S_TEXT/UTF8
Идентификатор кодека/Информация : UTF-8 Plain Text
Заголовок : Forced, iTunes
Язык : Ukrainian
Default : Нет
Forced : Нет
Текст #4
Идентификатор : 9
Формат : UTF-8
Идентификатор кодека : S_TEXT/UTF8
Идентификатор кодека/Информация : UTF-8 Plain Text
Заголовок : Forced, iTunes
Язык : English
Default : Нет
Forced : Нет
Текст #5
Идентификатор : 10
Формат : UTF-8
Идентификатор кодека : S_TEXT/UTF8
Идентификатор кодека/Информация : UTF-8 Plain Text
Заголовок : iTunes
Язык : English
Default : Нет
Forced : Нет
Текст #6
Идентификатор : 11
Формат : UTF-8
Идентификатор кодека : S_TEXT/UTF8
Идентификатор кодека/Информация : UTF-8 Plain Text
Заголовок : Commentary
Язык : English
Default : Нет
Forced : Нет
Меню
00:00:00.000 : en:Navigating The Wonder
00:04:33.190 : en:Return Home
00:07:24.235 : en:Canceled Plans
00:12:07.435 : en:Through The Looking Glass
00:16:39.790 : en:Old Friends
00:22:47.616 : en:Chronosphere
00:24:59.623 : en:Time's Castle
00:30:18.233 : en:The Grand Clock
00:35:29.794 : en:Arrival Of The Red Queen
00:41:32.990 : en:Ocean Of Time
00:45:20.051 : en:Coronation
00:51:35.676 : en:Warning The Hatter
00:54:11.039 : en:Tea Party With Time
00:57:40.123 : en:Tart Trouble
01:04:18.521 : en:"The Stroke Of Six"
01:09:18.988 : en:Escape From The Asylum
01:12:46.279 : en:Horunvendush Day
01:18:07.391 : en:Red Queen's Lair
01:23:20.245 : en:Changing The Past
01:27:34.749 : en:Running Out Of Time
01:32:15.947 : en:Family Reunion
01:36:40.461 : en:Goodbyes
01:40:12.590 : en:Setting Sail
01:43:14.814 : en:End Credits

Скриншоты

[Профиль] [ЛС]
Показать сообщения:    

Текущее время: Сегодня 18:51

Часовой пояс: GMT



Вы не можете начинать темы
Вы не можете отвечать на сообщения
Вы не можете редактировать свои сообщения
Вы не можете удалять свои сообщения
Вы не можете голосовать в опросах
Вы не можете прикреплять файлы к сообщениям
Вы не можете скачивать файлы