Алиса вверх тормашками / Элис вверх тормашками / Alice Upside Down (Сэнди Танг / Sandy Tung) [2007, Франция, США, приключения, комедия, драма, DVDRip] MVO (SDI Media) + Original Eng

 
Автор Сообщение

painkiller ®

Стаж: 2 года 3 месяца

Сообщений: 582



Награды: Нет

Торрент-статистика

Создавать темы 14-Авг-2014 09:12

[Цитировать]

Алиса вверх тормашками / Элис вверх тормашками / Alice Upside Down
Страна: Франция, США
Жанр: приключения, комедия, драма
Год выпуска: 2007
Продолжительность: 01:30:25
Перевод: Профессиональный (многоголосый закадровый) SDI Media
Cубтитры: нет
Оригинальная аудиодорожка: английский (отдельным файлом)
Режиссер: Сэнди Танг / Sandy Tung
В ролях: Элисон Стоунер, Лукас Грэйбил, Бриджит Мендлер, Люк Перри, Паркер МакКенна Поузи, Дилан МакЛафлин, Пенни Маршалл, Энн Дауд, Эшли Дрэйн, Борис Коджо, Джона Ксяо
Описание: По мотивам серии романов "Элис" Филлис Рейнольдс Нэйлор. Элис МакКинли - 11-летняя девочка, кторая перешла в 6-й класс новой школы. Ее жизнь полна разочарований и неприятных моментов. Она не так популярна, как ей хотелось бы, да к тому же оказывается в классе у самой злой учительницы. А когда Элис пробуется на роль в школьном мюзикле, то оказывается, что у нее совсем нет слуха. Но благодаря поддержке своего отца Бена, брата Лестера и некоторых учителей, она учиться справляться с трудностями...
II Сэмпл II IMDB II
Качество видео: DVDRip
Формат видео: AVI
Видео: Xvid 624x352 (16:9) 23.976fps Bit rate 949Kbps b/p 0.180
Аудио 1: AC3 48.0KHz 2ch 192 Kbps rus mvo
Аудио 2: AC3 48.0KHz 2ch 192 Kbps eng (отдельным файлом)

MediaInfo

Общее
Полное имя : E:\torrent\Alice.Upside.Down.2007.DVDRip\Alice.Upside.Down.2007.DVDRip.avi
Формат : AVI
Формат/Информация : Audio Video Interleave
Размер файла : 744 Мбайт
Продолжительность : 1 ч. 30 м.
Общий поток : 1150 Кбит/сек
Программа кодирования : VirtualDubMod 1.5.10.2 (build 2542/release)
Библиотека кодирования : VirtualDubMod build 2542/release
Видео
Идентификатор : 0
Формат : MPEG-4 Visual
Профиль формата : Advanced Simple@L5
Параметр BVOP формата : 2
Параметр QPel формата : Нет
Параметр GMC формата : Без точки перехода
Параметр матрицы формата : Default (H.263)
Идентификатор кодека : XVID
Идентификатор кодека/Подсказка : XviD
Продолжительность : 1 ч. 30 м.
Битрейт : 949 Кбит/сек
Ширина : 624 пикселя
Высота : 352 пикселя
Соотношение сторон : 16:9
Частота кадров : 23,976 кадра/сек
Цветовое пространство : YUV
Субдискретизация насыщенности : 4:2:0
Битовая глубина : 8 бит
Тип развёртки : Прогрессивная
Метод сжатия : С потерями
Бит/(Пиксели*Кадры) : 0.180
Размер потока : 614 Мбайт (82%)
Библиотека кодирования : XviD 65
Аудио
Идентификатор : 1
Формат : AC-3
Формат/Информация : Audio Coding 3
Расширение режима : CM (complete main)
Параметр Endianness формата : Big
Идентификатор кодека : 2000
Продолжительность : 1 ч. 30 м.
Вид битрейта : Постоянный
Битрейт : 192 Кбит/сек
Каналы : 2 канала
Расположение каналов : Front: L R
Частота : 48,0 КГц
Битовая глубина : 16 бит
Метод сжатия : С потерями
Размер потока : 124 Мбайт (17%)
Выравнивание : Соединение по промежуткам
Продолжительность промежутка : 42 мс. (1,00 видеокадр)
Время предзагрузки промежутка : 512 мс.

Скриншот c названием фильма

Скриншоты

[Профиль] [ЛС]

Создавать темы 06-Авг-2015 23:15 (спустя 11 месяцев 23 дня)

Топик был перенесен из форума Фильмы до 2014 года в форум Фильмы до 2012 года
sergej644
 
Показать сообщения:    

Текущее время: Сегодня 12:48

Часовой пояс: GMT



Вы не можете начинать темы
Вы не можете отвечать на сообщения
Вы не можете редактировать свои сообщения
Вы не можете удалять свои сообщения
Вы не можете голосовать в опросах
Вы не можете прикреплять файлы к сообщениям
Вы не можете скачивать файлы