Алиби / The Alibi (Мэтт Чековски / Matt Checkowski, Курт Маттила / Kurt Mattila) [2006, США, Нидерланды, драма, мелодрама, комедия, DVDRip] AVO (Гранкин)

 
Автор Сообщение

TorrentFilm ®

Пол:

Стаж: 2 года

Сообщений: 7741



Награды: Нет

Торрент-статистика

Создавать темы 23-Мар-2015 00:01

[Цитировать]

АлибиThe Alibi Страна: США, Нидерланды
Жанр: драма, мелодрама, комедия
Год выпуска: 2006
Продолжительность: 01:26:37-Перевод: Авторский (одноголосый закадровый) Евгений Гранкин
Cубтитры: нет-Режиссер: Мэтт Чековски / Matt Checkowski, Курт Маттила / Kurt Mattila
В ролях: Джерри О’Коннелл, Джон Полито, Дебора Кара Ангер, Стив Кугэн, Кен Керман, Айми Гарсиа, Ясмин Делавари, Мэри Пэт Глисон, Ребекка Ромин, Генри Роллинз-Описание: Рэй Эллиот управляет службой алиби для мужчин и женщин, которые хотят провести некоторое время отдельно от их так называемых любимых. И жизнь Рэя была бы еще лучше, если бы не избалованный сын их самого богатого клиента, который уехал перед свадьбой поразвлечься и, как вы догадываетесь, не с невестой...-Сэмпл-Качество видео: DVDRip
Формат видео: AVI
Видео: 720x400 (1.80:1), 25 fps, DivX Codec 5.2.1 build 1328 ~1010 kbps avg, 0.14 bit/pixel
Аудио: 48 kHz, AC3 Dolby Digital, 2/0 (L,R) ch, ~128 kbps

MediaInfo

Общее
Полное имя : E:\Torrent\Alibi.Grankin.avi
Формат : AVI
Формат/Информация : Audio Video Interleave
Размер файла : 711 Мбайт
Продолжительность : 1 ч. 26 м.
Общий поток : 1148 Кбит/сек
Программа кодирования : VirtualDubMod 1.5.10.2 (build 2540/release)
Библиотека кодирования : VirtualDubMod build 2540/release
Видео
Идентификатор : 0
Формат : MPEG-4 Visual
Параметр BVOP формата : Нет
Параметр QPel формата : Нет
Параметр GMC формата : Без точки перехода
Параметр матрицы формата : Default (H.263)
Идентификатор кодека : DX50
Идентификатор кодека/Подсказка : DivX 5
Продолжительность : 1 ч. 26 м.
Битрейт : 1010 Кбит/сек
Ширина : 720 пикселей
Высота : 400 пикселей
Соотношение сторон : 16:9
Частота кадров : 25,000 кадров/сек
Цветовое пространство : YUV
Субдискретизация насыщенности : 4:2:0
Битовая глубина : 8 бит
Тип развёртки : Прогрессивная
Метод сжатия : С потерями
Бит/(Пиксели*Кадры) : 0.140
Размер потока : 626 Мбайт (88%)
Библиотека кодирования : DivX 5.2.1 (WaffleDay) (UTC 2004-09-08)
Аудио
Идентификатор : 1
Формат : AC-3
Формат/Информация : Audio Coding 3
Расширение режима : CM (complete main)
Параметр Endianness формата : Big
Идентификатор кодека : 2000
Продолжительность : 1 ч. 26 м.
Вид битрейта : Постоянный
Битрейт : 128 Кбит/сек
Каналы : 2 канала
Расположение каналов : Front: L R
Частота : 48,0 КГц
Битовая глубина : 16 бит
Метод сжатия : С потерями
Размер потока : 79,3 Мбайт (11%)
Выравнивание : Разделение по промежуткам
Продолжительность промежутка : 40 мс. (1,00 видеокадр)
Время предзагрузки промежутка : 500 мс.
Язык : Russian

Скриншот c названием фильма

Скриншоты

[Профиль] [ЛС]

Создавать темы 06-Авг-2015 22:40 (спустя 4 месяца 14 дней)

Топик был перенесен из форума Фильмы до 2014 года в форум Фильмы до 2012 года
sergej644
 
Показать сообщения:    

Текущее время: Сегодня 12:33

Часовой пояс: GMT



Вы не можете начинать темы
Вы не можете отвечать на сообщения
Вы не можете редактировать свои сообщения
Вы не можете удалять свои сообщения
Вы не можете голосовать в опросах
Вы не можете прикреплять файлы к сообщениям
Вы не можете скачивать файлы