(Rock) Алексей Романов: Солнцем освещённая дорога (1994, Austria), WavPack (image+.cue), lossless

 
Автор Сообщение

sergej644 ®

Пол:

Стаж: 4 года 11 месяцев

Сообщений: 6041

Откуда: Soviet Union



Награды: Нет

Торрент-статистика

Создавать темы 13-Ноя-2014 15:59

[Цитировать]

Алексей Романов: Солнцем освещённая дорога
Жанр: Rock
Носитель: CD
Страна-производитель диска: Austria
Компиляция (записи разных лет). Издано на CD: 1994
Издатель, номер по каталогу: A-RAM, ACD019
Аудиокодек: WavPack (*.wv)
Тип рипа: image+.cue
Битрейт аудио: lossless
Продолжительность: 0:58:30
Источник: ley-barmaley / lossless-galaxy
Наличие сканов в содержимом раздачи: Full scans (JPG, 600dpi)
Треклист:
1. Радуюсь
2. Всё сначала
3. Неторопясь упасть
4. Научи меня жить
5. Москва
6. Всё равно
7. Делай своё дело
8. Последняя любовь
9. Я тоже был ...
10. Дело дрянь
11. Кто виноват?
12. На том берегу
13. Я ни разу за морем не был

EAC log

Exact Audio Copy V1.0 beta 3 from 29. August 2011
Отчёт EAC об извлечении, выполненном 3. июля 2012, 21:30
Алексей Романов / Солнцем освещённая дорога (A-RAM, ACD019, Austria)
Дисковод: ASUS    DRW-1814BL   Adapter: 0  ID: 0
Режим чтения                 : Достоверность
Использование точного потока : Да
Отключение кэша аудио        : Да
Использование указателей C2  : Нет
Коррекция смещения при чтении                     : 6
Способность читать области Lead-in и Lead-out     : Нет
Заполнение пропущенных сэмплов тишиной            : Да
Удаление блоков с тишиной в начале и конце        : Нет
При вычислениях CRC использовались нулевые сэмплы : Да
Интерфейс                                         : Встроенный Win32-интерфейс для Win NT/2000
Выходной формат : Внутренние WAV-операции
Формат сэмплов  : 44.100 Гц; 16 бит; стерео
TOC извлечённого CD
     Трек |   Старт  | Длительность | Начальный сектор | Конечный сектор
    ---------------------------------------------------------------------
       1  |  0:00.00 |    3:35.12   |           0      |      16136
       2  |  3:35.12 |    4:25.73   |       16137      |      36084
       3  |  8:01.10 |    4:46.50   |       36085      |      57584
       4  | 12:47.60 |    5:15.42   |       57585      |      81251
       5  | 18:03.27 |    5:28.35   |       81252      |     105886
       6  | 23:31.62 |    3:46.53   |      105887      |     122889
       7  | 27:18.40 |    5:02.07   |      122890      |     145546
       8  | 32:20.47 |    5:05.65   |      145547      |     168486
       9  | 37:26.37 |    4:32.28   |      168487      |     188914
      10  | 41:58.65 |    5:50.40   |      188915      |     215204
      11  | 47:49.30 |    3:46.20   |      215205      |     232174
      12  | 51:35.50 |    3:34.07   |      232175      |     248231
      13  | 55:09.57 |    3:19.70   |      248232      |     263226
Характеристики диапазона извлечения и сообщения об ошибках
Выбранный диапазон
     Имя файла G:\ley-barmaley\lossless-galaxy.ru\Алексей Романов - Солнцем освещённая дорога (A-RAM, ACD019, Austria).wav
     Пиковый уровень 100.0 %
     Скорость извлечения 6.8 X
     Качество диапазона 100.0 %
     CRC теста 9C4F85CD
     CRC копии 9C4F85CD
     Копирование... OK
Ошибок не произошло
AccurateRip: сводка
Трек  1  отсутствует в базе данных
Трек  2  отсутствует в базе данных
Трек  3  отсутствует в базе данных
Трек  4  отсутствует в базе данных
Трек  5  отсутствует в базе данных
Трек  6  отсутствует в базе данных
Трек  7  отсутствует в базе данных
Трек  8  отсутствует в базе данных
Трек  9  отсутствует в базе данных
Трек 10  отсутствует в базе данных
Трек 11  отсутствует в базе данных
Трек 12  отсутствует в базе данных
Трек 13  отсутствует в базе данных
Ни одного трека нет в базе AccurateRip
Конец отчёта
---- CUETools DB Plugin V2.1.3
[CTDB TOCID: LBtlmmJmvkM8FiaBtOW5h9kden0-] found, Submit result: LBtlmmJmvkM8FiaBtOW5h9kden0- has been confirmed
[317efa43] (1/1) Accurately ripped
==== Контрольная сумма отчёта 14E4CE5B4387791770376138F5BE2F051AB89F3509173698835C708052CBEEFA ====

CD & matrix

[Профиль] [ЛС]

Создавать темы 13-Авг-2015 10:27 (спустя 8 месяцев 29 дней)

Топик был перенесен из форума Отечественная в форум Rock
sergej644
 
Кто просматривает тему:

Показать сообщения:    

Текущее время: Сегодня 01:09

Часовой пояс: GMT



Вы не можете начинать темы
Вы не можете отвечать на сообщения
Вы не можете редактировать свои сообщения
Вы не можете удалять свои сообщения
Вы не можете голосовать в опросах
Вы не можете прикреплять файлы к сообщениям
Вы не можете скачивать файлы