Александр / Alexander (2004) BDRip 1080p | The Ultimate Cut | A

 
Автор Сообщение

sergej644 ®

Пол:

Стаж: 4 года 11 месяцев

Сообщений: 6040

Откуда: Soviet Union



Награды: Нет

Торрент-статистика

Создавать темы 07-Июл-2015 22:07

[Цитировать]

Информация о фильме
Название: Александр
Оригинальное название: Alexander
Год выхода: 2004
Жанр: боевик, драма, мелодрама, приключения, военный, биография, история
Режиссер: Оливер Стоун
В ролях: Колин Фаррелл, Анджелина Джоли, Вэл Килмер, Джаред Лето, Энтони Хопкинс, Джонатан Риз Майерс, Розарио Доусон, Кристофер Пламмер, Дэвид Беделла, Джесси Камм
О фильме: Спустя 40 лет после гибели Александра пожилой Птолемей, один из ближайших соратников Македонского, ставший после его смерти наместником Египта, решает рассказать и записать историю побед великого полководца. В течение восьми лет войско Александра Великого двигалось на Восток, к берегам мирового Океана.
Покорив Западную и Центральную Азию, Македонский первым ступил на загадочную и таинственную землю древней Индии. Об этом он мечтал ещё в детстве, слушая мифы о Трое, подвигах Геракла и Ахиллеса…

Выпущено: Warner Bros.
Продолжительность: 03:26:47
Перевод: Авторский одноголосый закадровый (Ю.Сербин)
Файл
Кодек: x264
Качество: BDRip (источник: Blu-ray Disc)
Видео: 1920x800 (2,40:1), 23.976 fps, 9485 kbps
Аудио #1: AC-3, 6 ch, 640 kbps (Rus)
Аудио #2: AC-3, 6 ch, 640 kbps (Eng)
Субтитры: Русские, Английские
Скачать: сэмпл
Скриншоты

MI

General
Unique ID : 241996605859665534865956412386059137274 (0xB60ED9D8F11FBE56BDDD80FD5D7AB0FA)
Complete name : D:Alexander.The.Ultimate.Cut.2004.BDRip.1080p.Rus.Eng.mkv
Format : Matroska
Format version : Version 2
File size : 15.6 GiB
Duration : 3h 26mn
Overall bit rate : 10.8 Mbps
Movie name : Александр / Alexander (2004) | The Ultimate Cut
Encoded date : UTC 2015-07-03 16:18:03
Writing application : mkvmerge v5.8.0 ('No Sleep / Pillow') built on Sep 2 2012 15:37:04
Writing library : libebml v1.2.3 + libmatroska v1.3.0
Attachements : cover.png / logfile.log
Video
ID : 1
Format : AVC
Format/Info : Advanced Video Codec
Format profile : High@L4.1
Format settings, CABAC : Yes
Format settings, ReFrames : 5 frames
Codec ID : V_MPEG4/ISO/AVC
Duration : 3h 26mn
Bit rate : 9 485 Kbps
Width : 1 920 pixels
Height : 800 pixels
Display aspect ratio : 2.40:1
Frame rate mode : Constant
Frame rate : 23.976 fps
Color space : YUV
Chroma subsampling : 4:2:0
Bit depth : 8 bits
Scan type : Progressive
Bits/(Pixel*Frame) : 0.258
Stream size : 13.4 GiB (86%)
Title : Александр / Alexander (2004) | The Ultimate Cut
Writing library : x264 core 146 r0+2586 e393126 t_mod_Custom [8-bit@all X86_64]
Encoding settings : cabac=1 / ref=5 / deblock=1:-3:-3 / analyse=0x3:0x133 / me=tesa / subme=11 / psy=1 / fade_compensate=0.00 / psy_rd=1.05:0.00 / mixed_ref=1 / me_range=32 / chroma_me=1 / trellis=2 / 8x8dct=1 / cqm=0 / deadzone=21,11 / fast_pskip=0 / chroma_qp_offset=-2 / threads=12 / lookahead_threads=3 / sliced_threads=0 / nr=0 / decimate=1 / interlaced=0 / bluray_compat=0 / constrained_intra=0 / fgo=0 / bframes=12 / b_pyramid=2 / b_adapt=2 / b_bias=0 / direct=3 / weightb=1 / open_gop=0 / weightp=2 / keyint=240 / keyint_min=23 / scenecut=40 / intra_refresh=0 / rc=2pass / mbtree=0 / bitrate=9485 / ratetol=1.0 / qcomp=0.70 / qpmin=0:0:0 / qpmax=69:69:69 / qpstep=4 / cplxblur=20.0 / qblur=0.5 / ip_ratio=1.40 / pb_ratio=1.30 / aq=1:0.70 / aq-sensitivity=10.00 / aq-factor=1.00:1.00:1.00 / aq2=0 / aq3=0
Language : English
Default : Yes
Forced : No
Audio #1
ID : 2
Format : AC-3
Format/Info : Audio Coding 3
Mode extension : CM (complete main)
Format settings, Endianness : Big
Codec ID : A_AC3
Duration : 3h 26mn
Bit rate mode : Constant
Bit rate : 640 Kbps
Channel(s) : 6 channels
Channel positions : Front: L C R, Side: L R, LFE
Sampling rate : 48.0 KHz
Bit depth : 16 bits
Compression mode : Lossy
Stream size : 947 MiB (6%)
Title : Одноголосый закадровый, Ю.Сербин
Language : Russian
Default : Yes
Forced : No
Audio #2
ID : 3
Format : AC-3
Format/Info : Audio Coding 3
Mode extension : CM (complete main)
Format settings, Endianness : Big
Codec ID : A_AC3
Duration : 3h 26mn
Bit rate mode : Constant
Bit rate : 640 Kbps
Channel(s) : 6 channels
Channel positions : Front: L C R, Side: L R, LFE
Sampling rate : 48.0 KHz
Bit depth : 16 bits
Compression mode : Lossy
Stream size : 947 MiB (6%)
Title : English
Language : English
Default : No
Forced : No
Text #1
ID : 4
Format : UTF-8
Codec ID : S_TEXT/UTF8
Codec ID/Info : UTF-8 Plain Text
Title : Russian
Language : Russian
Default : No
Forced : No
Text #2
ID : 5
Format : UTF-8
Codec ID : S_TEXT/UTF8
Codec ID/Info : UTF-8 Plain Text
Title : English
Language : English
Default : No
Forced : No
Text #3
ID : 6
Format : UTF-8
Codec ID : S_TEXT/UTF8
Codec ID/Info : UTF-8 Plain Text
Title : English (SDH)
Language : English
Default : No
Forced : No
Text #4
ID : 7
Format : UTF-8
Codec ID : S_TEXT/UTF8
Codec ID/Info : UTF-8 Plain Text
Title : English (SDH Colored)
Language : English
Default : No
Forced : No
Menu
00:00:00.000 : :Chapter 01
00:04:06.412 : :Chapter 02
00:07:50.301 : :Chapter 03
00:08:35.971 : :Chapter 04
00:12:02.429 : :Chapter 05
00:19:10.439 : :Chapter 06
00:25:04.627 : :Chapter 07
00:31:00.232 : :Chapter 08
00:33:15.242 : :Chapter 09
00:37:12.604 : :Chapter 10
00:44:11.605 : :Chapter 11
00:49:42.478 : :Chapter 12
00:55:48.676 : :Chapter 13
01:00:05.643 : :Chapter 14
01:03:17.585 : :Chapter 15
01:05:49.987 : :Chapter 16
01:08:05.497 : :Chapter 17
01:13:32.740 : :Chapter 18
01:15:44.746 : :Chapter 19
01:22:31.362 : :Chapter 20
01:27:47.219 : :Chapter 21
01:31:45.500 : :Chapter 22
01:36:57.977 : :Chapter 23
01:43:52.100 : :Chapter 24
01:50:08.309 : :Chapter 25
01:55:29.631 : :Chapter 26
01:59:47.262 : :Chapter 27
02:01:18.020 : :Chapter 28
02:05:38.948 : :Chapter 29
02:09:15.788 : :Chapter 30
02:15:16.983 : :Chapter 31
02:18:18.039 : :Chapter 32
02:22:23.909 : :Chapter 33
02:30:56.463 : :Chapter 34
02:37:23.600 : :Chapter 35
02:38:48.101 : :Chapter 36
02:44:16.345 : :Chapter 37
02:49:59.939 : :Chapter 38
02:55:33.522 : :Chapter 39
02:59:38.391 : :Chapter 40
03:00:58.806 : :Chapter 41
03:02:43.034 : :Chapter 42
03:06:44.275 : :Chapter 43
03:09:18.013 : :Chapter 44
03:15:21.417 : :Chapter 45
03:18:31.816 : :Chapter 46
03:26:34.255 : :Chapter 47

x264

x264 [info]: frame I:1784 Avg QP:15.28 size:182128
x264 [info]: frame P:81074 Avg QP:17.66 size: 83798
x264 [info]: frame B:214618 Avg QP:19.92 size: 35354
x264 [info]: consecutive B-frames: 4.3% 6.4% 9.8% 43.9% 12.0% 16.8% 3.6% 2.7% 0.2% 0.1% 0.0% 0.0% 0.2%
[Профиль] [ЛС]
Показать сообщения:    

Текущее время: Сегодня 18:41

Часовой пояс: GMT



Вы не можете начинать темы
Вы не можете отвечать на сообщения
Вы не можете редактировать свои сообщения
Вы не можете удалять свои сообщения
Вы не можете голосовать в опросах
Вы не можете прикреплять файлы к сообщениям
Вы не можете скачивать файлы