Александр Феклисов: Карибский Кризис Глазами Резидента (Андрей Гречиха) [2015, Документальный, HDTV 720p]

 
Автор Сообщение

TorrentFilm ®

Пол:

Стаж: 2 года

Сообщений: 7741



Награды: Нет

Торрент-статистика

Создавать темы 04-Мар-2015 00:16

[Цитировать]

Александр Феклисов: Карибский Кризис Глазами Резидента- Год выпуска: 2015
Страна: Россия
Студия: Россия HD
Жанр: Документальный
Продолжительность: 0:43:16
Режиссер: Андрей Гречиха-Описание: К 70-летию Великой Победы. Фильм снимался при содействии Службы внешней разведки Российской Федерации. Октябрь 2007 года. Из газетных сообщений: Вашингтон Пост": "В Москве в возрасте 93 лет скончался главный шпион периода холодной войны. Конспирация и тайные операции были стилем его жизни". "Нью-Йорк Таймс": "Как сообщило Пресс-бюро Службы внешней Разведки России, 26 октября 2007 года ушел из жизни разведчик, которого в США называли посредником между Кремлем и Белым домом в период Кубинского кризиса 62 года".-Автор рипа: lrn
Автор записи: riper.am
Сэмпл: Яндекс.Диск-Тип релиза: HDTV 720p
Контейнер: MKV
Видео: 1280x720 (16:9), 25,000 fps, H264, ~4000 kbps avg, ~0.174 bit/pixel
Аудио: 48 kHz, AC3 Dolby Digital, 2/0 (L,R) ch, ~192.00 kbps avg-

MediaInfo

GeneralUnique ID : 236304371618053880746100783456133192400 (0xB1C69108096C18B5B16D570D2A761AD0)Complete name : E:\uTorrent.Temp\Temp\Aleksandr.Feklisov.Karibskij.Krizis.Glazami.Rezidenta.2015.HDTV.720p.x264-lrn.mkvFormat : MatroskaFormat version : Version 4 / Version 2File size : 1.27 GiBDuration : 43mn 16sOverall bit rate : 4 193 KbpsMovie name : 'Aleksandr.Feklisov.Karibskij.Krizis.Glazami.Rezidenta.2015.HDTV.720p.x264' by lrn © 2015Encoded date : UTC 2010-02-22 21:41:31Writing application : mkvmerge v5.9.0 ('On The Loose') built on Dec 9 2012 15:37:01Writing library : libebml v1.3.0 + libmatroska v1.4.0DURATION : 00:43:16.520000000NUMBER_OF_FRAMES : 64913NUMBER_OF_BYTES : 1297898556_STATISTICS_WRITING_APP : mkvmerge v7.0.0 ('Where We Going') 32bit built on Jun 9 2014 15:08:34_STATISTICS_WRITING_DATE_UT : 2015-02-27 09:45:58_STATISTICS_TAGS : BPS DURATION NUMBER_OF_FRAMES NUMBER_OF_BYTES
VideoID : 1Format : AVCFormat/Info : Advanced Video CodecFormat profile : High@L4.1Format settings, CABAC : YesFormat settings, ReFrames : 6 framesCodec ID : V_MPEG4/ISO/AVCDuration : 43mn 16sBit rate : 4 000 KbpsWidth : 1 280 pixelsHeight : 720 pixelsDisplay aspect ratio : 16:9Frame rate mode : ConstantFrame rate : 25.000 fpsColor space : YUVChroma subsampling : 4:2:0Bit depth : 8 bitsScan type : ProgressiveBits/(Pixel*Frame) : 0.174Stream size : 1.18 GiB (93%)Writing library : x264 core 142 r2431 ac76440Encoding settings : cabac=1 / ref=6 / deblock=1:0:0 / analyse=0x3:0x133 / me=umh / subme=9 / psy=1 / psy_rd=1.00:0.00 / mixed_ref=1 / me_range=24 / chroma_me=1 / trellis=2 / 8x8dct=1 / cqm=0 / deadzone=21,11 / fast_pskip=1 / chroma_qp_offset=-2 / threads=12 / lookahead_threads=1 / sliced_threads=0 / nr=0 / decimate=1 / interlaced=0 / bluray_compat=0 / constrained_intra=0 / bframes=6 / b_pyramid=2 / b_adapt=2 / b_bias=0 / direct=3 / weightb=1 / open_gop=0 / weightp=2 / keyint=250 / keyint_min=25 / scenecut=40 / intra_refresh=0 / rc_lookahead=50 / rc=2pass / mbtree=1 / bitrate=4000 / ratetol=1.0 / qcomp=0.60 / qpmin=0 / qpmax=69 / qpstep=4 / cplxblur=20.0 / qblur=0.5 / ip_ratio=1.40 / aq=1:1.00Default : YesForced : No
AudioID : 2Format : AC-3Format/Info : Audio Coding 3Mode extension : CM (complete main)Format settings, Endianness : BigCodec ID : A_AC3Duration : 43mn 16sBit rate mode : ConstantBit rate : 192 KbpsChannel(s) : 2 channelsChannel positions : Front: L RSampling rate : 48.0 KHzBit depth : 16 bitsCompression mode : LossyStream size : 59.4 MiB (5%)Language : RussianDefault : YesForced : No

Скриншоты

-
[Профиль] [ЛС]
Показать сообщения:    

Текущее время: Сегодня 10:04

Часовой пояс: GMT



Вы не можете начинать темы
Вы не можете отвечать на сообщения
Вы не можете редактировать свои сообщения
Вы не можете удалять свои сообщения
Вы не можете голосовать в опросах
Вы не можете прикреплять файлы к сообщениям
Вы не можете скачивать файлы