Александр. Невская битва (2008) BDRip 1080p

 
Автор Сообщение

sergej644 ®

Пол:

Стаж: 4 года 11 месяцев

Сообщений: 6043

Откуда: Soviet Union



Награды: Нет

Торрент-статистика

Создавать темы 27-Янв-2015 04:27

[Цитировать]

Информация о фильме
Название: Александр. Невская битва
Год выхода: 2008
Жанр: Драма, военный, история
Режиссер: Игорь Каленов
В ролях: Антон Пампушный, Игорь Ботвин, Сергей Лысов, Александр Орлов, Дмитрий Быковский, Александр Быковский, Артем Осипов..
О фильме:
Первая половина 13 века. Новгородский князь Александр любим народом, но имеет и многих противников. Огромная армия Батыя угрожает нашествием с юга. Шведские рыцари замышляют крестовый поход на Русь, они засылают в Новгород шпиона. Боярская оппозиция готовит покушение на Александра, вынашивает предательский план сдачи города. В довершение ко всему, лучший друг князя Ратмир проникся страстью к красавице-княжне и теперь может стать для Александра опасным врагом. Князь молод, но жизнь требует от него воинской доблести, дальновидности дипломата и глубокой житейской мудрости.

Страна: Россия
Продолжительность: 02:07:04
Перевод: Оригинал
Файл
Кодек: H264
Качество: BDRip 1080p
Видео: 1920x816, 4966 Kbps, 23.976 fps
Звук: 48 kHz, AC3, 6c, 448 kbps
Субтитры: Нет
Семпл

MI

Общее
Формат : Matroska
Версия формата : Version 2
Размер файла : 4.37 GiB
Продолжительность : 1h 55mn
Общий поток : 5 422 Kbps
Название фильма : Александр. Невская битва (2008) BDRip 1080p от Dimok
Дата кодирования : UTC 2012-02-04 07:30:22
Программа кодирования : mkvmerge v5.2.1 ('A Far Off Place') built on Jan 2 2012 23:21:10
Библиотека кодирования : libebml v1.2.3 + libmatroska v1.3.0
Video
Идентификатор : 1
Формат : AVC
Формат/Информация : Advanced Video Codec
Профиль формата : High@L4.1
Параметр CABAC формата : Yes
Параметр ReFrames формата : 5 frames
Идентификатор кодека : V_MPEG4/ISO/AVC
Продолжительность : 1h 55mn
Битрейт : 4 966 Kbps
Ширина : 1 920 pixels
Высота : 816 pixels
Соотношение сторон : 2.35:1
Частота кадров : 23.976 fps
Цветовое пространство : YUV
Субдискретизация насыщенности : 4:2:0
Битовая глубина : 8 bits
Тип развёртки : Progressive
Бит/(Пиксели*Кадры) : 0.132
Размер потока : 3.92 GiB (90%)
Библиотека кодирования : x264 core 92 r1510 33d382a
Настройки программы : cabac=1 / ref=5 / deblock=1:0:0 / analyse=0x3:0x133 / me=umh / subme=10 / psy=1 / psy_rd=1.00:0.10 / mixed_ref=1 / me_range=32 / chroma_me=1 / trellis=2 / 8x8dct=1 / cqm=0 / deadzone=21,11 / fast_pskip=0 / chroma_qp_offset=-3 / threads=6 / sliced_threads=0 / nr=0 / decimate=1 / interlaced=0 / constrained_intra=0 / bframes=6 / b_pyramid=2 / b_adapt=2 / b_bias=0 / direct=3 / wpredb=1 / wpredp=2 / keyint=240 / keyint_min=24 / scenecut=40 / intra_refresh=0 / rc_lookahead=60 / rc=2pass / mbtree=1 / bitrate=4966 / ratetol=1.0 / qcomp=0.60 / qpmin=10 / qpmax=51 / qpstep=4 / cplxblur=20.0 / qblur=0.5 / ip_ratio=1.40 / aq=1:1.00
Язык : Russian
Audio
Идентификатор : 2
Формат : AC-3
Формат/Информация : Audio Coding 3
Расширение режима : CM (complete main)
Идентификатор кодека : A_AC3
Продолжительность : 1h 55mn
Вид битрейта : Constant
Битрейт : 448 Kbps
Каналы : 6 channels
Расположение каналов : Front: L C R, Side: L R, LFE
Частота : 48.0 KHz
Битовая глубина : 16 bits
Метод сжатия : Lossy
Размер потока : 370 MiB (8%)
Заголовок : Оригинал
Язык : Russian
[Профиль] [ЛС]
Показать сообщения:    

Текущее время: Сегодня 08:14

Часовой пояс: GMT



Вы не можете начинать темы
Вы не можете отвечать на сообщения
Вы не можете редактировать свои сообщения
Вы не можете удалять свои сообщения
Вы не можете голосовать в опросах
Вы не можете прикреплять файлы к сообщениям
Вы не можете скачивать файлы