Александр Маршал и Юлия Савичева - «Сюзанна» / VA - «Когда поют мужчины» (Эфир от 08.03.2014) [2014, Pop, HDTV 1080i]

 
Автор Сообщение

sergej644 ®

Пол:

Стаж: 4 года 11 месяцев

Сообщений: 6040

Откуда: Soviet Union



Награды: Нет

Торрент-статистика

Создавать темы 04-Янв-2015 00:16

[Цитировать]

Александр Маршал и Юлия Савичева - «Сюзанна» / VA - «Когда поют мужчины» (Эфир от 08.03.2014)
Жанр: Pop
Продолжительность: 00:04:47
Год выпуска: 2014
Выпущено: Россия, ВГТРК
Ведущие: Николай Басков и Потап.
Описание: Чтобы поздравить с весенним праздником прекрасных дам, участники сегодняшнего концерта выбрали необычный способ. Мужчины будут исполнять песни женского репертуара, а женщины – наоборот.
Дуэт Юлии Савичьевой и Александра Маршала выбрал в качестве музыкального подарка на 8-е Марта песню "Сюзанна".
Эфир от 08.03.2014
Источник: nokia5150
Доп. информация: Рип чистый. Без посторонних надписей. Выкладывается как есть.

Качество: HDTV 1080i
Контейнер: TS
Видео кодек: AVC
Аудио кодек: MP2
Видео: 1920x1080 (16:9) 25.000 fps 5 958 Kbps, 0.115 bit/pixel
Аудио: MPEG Audio 48000Hz stereo 192 Кбит/сек

Скриншоты

Отчёт MediaInfo / BDInfo

Общее
Идентификатор : 1 (0x1)
Полное имя : F:\Раздачи\Александр Маршал и Юлия Савичьева - Сюзанна (2014, HDTV, Когда поют мужчины, 08.03.2014).ts
Формат : MPEG-TS
Размер файла : 223 Мбайт
Продолжительность : 4 м. 47 с.
Режим общего битрейта : Переменный
Общий поток : 6500 Кбит/сек
Видео
Идентификатор : 256 (0x100)
Идентификатор меню : 1 (0x1)
Формат : AVC
Формат/Информация : Advanced Video Codec
Профиль формата : High@L4.0
Параметр CABAC формата : Нет
Параметр ReFrames формата : 4 кадра
Идентификатор кодека : 27
Продолжительность : 4 м. 47 с.
Битрейт : 5985 Кбит/сек
Номинальный битрейт : 5000 Кбит/сек
Ширина : 1920 пикселей
Высота : 1080 пикселей
Соотношение сторон : 16:9
Частота кадров : 25,000 кадров/сек
Цветовое пространство : YUV
Субдискретизация насыщенности : 4:2:0
Битовая глубина : 8 бит
Тип развёртки : MBAFF
Бит/(Пиксели*Кадры) : 0.115
Размер потока : 205 Мбайт (92%)
Библиотека кодирования : x264 core 124
Настройки программы : cabac=0 / ref=1 / deblock=0:0:0 / analyse=0x3:0x13 / me=dia / subme=1 / psy=1 / psy_rd=1.00:0.00 / mixed_ref=0 / me_range=16 / chroma_me=1 / trellis=0 / 8x8dct=1 / cqm=0 / deadzone=21,11 / fast_pskip=1 / chroma_qp_offset=0 / threads=8 / sliced_threads=0 / nr=0 / decimate=1 / interlaced=tff / bluray_compat=0 / constrained_intra=0 / bframes=3 / b_pyramid=2 / b_adapt=1 / b_bias=0 / direct=1 / weightb=0 / open_gop=0 / weightp=0 / keyint=60 / keyint_min=6 / scenecut=40 / intra_refresh=0 / rc_lookahead=0 / rc=abr / mbtree=0 / bitrate=5000 / ratetol=1.0 / qcomp=0.60 / qpmin=10 / qpmax=51 / qpstep=4 / vbv_maxrate=8000 / vbv_bufsize=6000 / nal_hrd=none / ip_ratio=1.40 / pb_ratio=1.30 / aq=1:1.00
Аудио
Идентификатор : 257 (0x101)
Идентификатор меню : 1 (0x1)
Формат : MPEG Audio
Версия формата : Version 1
Профиль формата : Layer 2
Идентификатор кодека : 3
Продолжительность : 4 м. 47 с.
Вид битрейта : Постоянный
Битрейт : 192 Кбит/сек
Каналы : 2 канала
Частота : 48,0 КГц
Метод сжатия : С потерями
Задержка видео : -80 мс.
Размер потока : 6,58 Мбайт (3%)
Меню
Идентификатор : 4096 (0x1000)
Идентификатор меню : 1 (0x1)
Продолжительность : 4 м. 47 с.
Список : 256 (0x100) (AVC) / 257 (0x101) (MPEG Audio)
Название сервиса : Service01
Поставщик сервиса : FFmpeg
Тип сервиса : digital television
--
[Профиль] [ЛС]

Создавать темы 13-Авг-2015 12:07 (спустя 7 месяцев 9 дней)

Топик был перенесен из форума Видеоклипы в форум Наши клипы
sergej644
 
Показать сообщения:    

Текущее время: Сегодня 20:44

Часовой пояс: GMT



Вы не можете начинать темы
Вы не можете отвечать на сообщения
Вы не можете редактировать свои сообщения
Вы не можете удалять свои сообщения
Вы не можете голосовать в опросах
Вы не можете прикреплять файлы к сообщениям
Вы не можете скачивать файлы