(Chanson)Александр Кальянов - Плохая примета (1993) [FLAC 2.0 24/192|image + .cue (Vinyl-Rip)]

 
Автор Сообщение

sergej644 ®

Пол:

Стаж: 4 года 11 месяцев

Сообщений: 6045

Откуда: Soviet Union



Награды: Нет

Торрент-статистика

Создавать темы 27-Окт-2014 19:30

[Цитировать]

-Александр Кальянов - Плохая примета (1993)-Год: 1993
Жанр: Chanson
Продолжительность: 00:49:05
Кодек: FLAC
Битрейт: Lossless
Треклист:
Сторона 1
• 01. Жизнь московская
• 02. Плохая примета
• 03. Вышей мне рубаху
• 04. Здравствуй, Люся
• 05. У «опера» с Петровки...
• 06. Я грешник
• 07. Чистенькие девочки
• 08. Эмигранты
Сторона 2
• 01. Звякнула монета...
• 02. Возвращался домой...
• 03. Небо с овчинку
• 04. Старое кафе
• 05. Таганка
• 06. Дядя Ваня
• 07. Вас не нужно жалеть
• 08. Нечесаная Русь

Тех. информация:

Источник оцифровки: автором раздачи
Код класса состояния винила: VG
Устройство воспроизведения: Clearaudio Concept MC
Головка звукоснимателя: Clearaudio Concept MC
Предварительный усилитель: Luxman E-200
АЦП: Asus Xonar Phoebus
Программа-оцифровщик: Audacity 2.0.3
Обработка: iZotope RX 4 Advanced

Спектрограмма:

АЧХ:

Уровень записи:

Содержание индексной карты (.CUE):

REM GENRE Chanson
REM DATE 1993
PERFORMER "Александр Кальянов"
TITLE "Плохая примета"
FILE "Александр Кальянов - Плохая примета.flac" WAVE
  TRACK 01 AUDIO
    TITLE "Жизнь московская"
    PERFORMER "Александр Кальянов"
    INDEX 01 00:00:00
  TRACK 02 AUDIO
    TITLE "Плохая примета"
    PERFORMER "Александр Кальянов"
    INDEX 01 04:10:00
  TRACK 03 AUDIO
    TITLE "Вышей мне рубаху"
    PERFORMER "Александр Кальянов"
    INDEX 01 06:33:00
  TRACK 04 AUDIO
    TITLE "Здравствуй, Люся"
    PERFORMER "Александр Кальянов"
    INDEX 01 10:22:00
  TRACK 05 AUDIO
    TITLE "У «опера» с Петровки..."
    PERFORMER "Александр Кальянов"
    INDEX 01 12:56:00
  TRACK 06 AUDIO
    TITLE "Я грешник"
    PERFORMER "Александр Кальянов"
    INDEX 01 15:42:00
  TRACK 07 AUDIO
    TITLE "Чистенькие девочки"
    PERFORMER "Александр Кальянов"
    INDEX 01 18:49:00
  TRACK 08 AUDIO
    TITLE "Эмигранты"
    PERFORMER "Александр Кальянов"
    INDEX 01 22:11:00
  TRACK 09 AUDIO
    TITLE "Звякнула монета..."
    PERFORMER "Александр Кальянов"
    INDEX 01 25:00:00
  TRACK 10 AUDIO
    TITLE "Возвращался домой..."
    PERFORMER "Александр Кальянов"
    INDEX 01 27:23:00
  TRACK 11 AUDIO
    TITLE "Небо с овчинку"
    PERFORMER "Александр Кальянов"
    INDEX 01 31:31:00
  TRACK 12 AUDIO
    TITLE "Старое кафе"
    PERFORMER "Александр Кальянов"
    INDEX 01 34:31:00
  TRACK 13 AUDIO
    TITLE "Таганка"
    PERFORMER "Александр Кальянов"
    INDEX 01 38:10:00
  TRACK 14 AUDIO
    TITLE "Дядя Ваня"
    PERFORMER "Александр Кальянов"
    INDEX 01 41:21:00
  TRACK 15 AUDIO
    TITLE "Вас не нужно жалеть"
    PERFORMER "Александр Кальянов"
    INDEX 01 44:37:00
  TRACK 16 AUDIO
    TITLE "Нечесаная Русь"
    PERFORMER "Александр Кальянов"
    INDEX 01 46:23:00

Media Info:

Общее
Полное имя                               : D:\Александр Кальянов\1993. Александр Кальянов - Плохая примета\Александр Кальянов - Плохая примета.flac
Формат                                   : FLAC
Формат/Информация                        : Free Lossless Audio Codec
Размер файла                             : 1,77 Гбайт
Продолжительность                        : 49 м.
Режим общего битрейта                    : Переменный
Общий поток                              : 5168 Кбит/сек
Аудио
Формат                                   : FLAC
Формат/Информация                        : Free Lossless Audio Codec
Продолжительность                        : 49 м.
Вид битрейта                             : Переменный
Битрейт                                  : 5168 Кбит/сек
Каналы                                   : 2 канала
Частота                                  : 192 КГц
Битовая глубина                          : 24 бит
Размер потока                            : 1,77 Гбайт (100%)
Библиотека кодирования                   : libFLAC 1.3.0 (UTC 2013-05-26)

Дополнительная информация:

Удалён треск и фон!
Приятного всем прослушивания!
Время раздачи: с 18:00 до 24:00
[Профиль] [ЛС]

Создавать темы 13-Авг-2015 11:57 (спустя 9 месяцев 16 дней)

Топик был перенесен из форума Музыка ( DVD, DVDrip, HD, HDRip Video) (Vinyl-Rip и Hand-Made) в форум Vinyl-Rip и Hand-Made
sergej644
 
Кто просматривает тему:

Показать сообщения:    

Текущее время: Сегодня 02:14

Часовой пояс: GMT



Вы не можете начинать темы
Вы не можете отвечать на сообщения
Вы не можете редактировать свои сообщения
Вы не можете удалять свои сообщения
Вы не можете голосовать в опросах
Вы не можете прикреплять файлы к сообщениям
Вы не можете скачивать файлы