Александр и ужасный, кошмарный, нехороший, очень плохой день / Alexander and the Terrible, Horrible, No Good, Very Bad Day (Мигель Артета / Miguel Arteta) [2014, США, комедия, семейный, WEB-DLRip] Dub

 
Автор Сообщение

TorrentFilm ®

Пол:

Стаж: 2 года 6 месяцев

Сообщений: 7773



Награды: Нет

Торрент-статистика

Создавать темы 11-Янв-2015 00:00

[Цитировать]

Александр и ужасный, кошмарный, нехороший, очень плохой день / Alexander and the Terrible, Horrible, No Good, Very Bad Day
Страна: США
Жанр: комедия, семейный
Год выпуска: 2014
Продолжительность: 01:14:04
Перевод: Профессиональный (дублированный)
Cубтитры: нет
Режиссер: Мигель Артета / Miguel Arteta
В ролях: Стив Карелл, Дженнифер Гарнер, Эд Оксенбульд, Дилан Миннетт, Кэррис Дорси, Элиз Варгас, Зоя Варгас, Сидни Фуллмер, Белла Торн, Меган Маллалли
Описание: Утро для Александра началось ужасно: жвачка, которая еще вечером была у него во рту, теперь запуталась в волосах, вставая с кровати, он поскользнулся на скейтборде и по ошибке бросил свой свитер в раковину, когда там была вода. Уже тогда можно было сказать, что это будет ужасный, страшный, нехороший, очень плохой день. Все валилось из рук и шло совсем не так, как хотелось бы. Что же делать в такой день? Например, можно подумать о путешествии в Австралию. Также можно обнаружить, что день такой плохой не только у тебя…
Сэмпл: http://multi-up.com/1025685
Качество видео: WEB-DLRip
Формат видео: AVI
Видео: 720x400 (1.80:1), 25 fps, XviD build 50 ~1182 kbps avg, 0.16 bit/pixel
Аудио: 48 kHz, AC3 Dolby Digital, 2/0 (L,R) ch, ~128 kbps

MediaInfo

Формат : AVI
Формат/Информация : Audio Video Interleave
Размер файла : 700 Мбайт
Продолжительность : 1 ч. 14 м.
Общий поток : 1321 Кбит/сек
Программа кодирования : VirtualDubMod 1.5.10.2 (build 2540/release)
Библиотека кодирования : VirtualDubMod build 2540/release
Видео
Идентификатор : 0
Формат : MPEG-4 Visual
Профиль формата : Advanced Simple@L5
Параметр BVOP формата : 2
Параметр QPel формата : Нет
Параметр GMC формата : Без точки перехода
Параметр матрицы формата : Default (MPEG)
Идентификатор кодека : XVID
Идентификатор кодека/Подсказка : XviD
Продолжительность : 1 ч. 14 м.
Битрейт : 1183 Кбит/сек
Ширина : 720 пикселей
Высота : 400 пикселей
Соотношение сторон : 16:9
Частота кадров : 25,000 кадров/сек
Цветовое пространство : YUV
Субдискретизация насыщенности : 4:2:0
Битовая глубина : 8 бит
Тип развёртки : Прогрессивная
Метод сжатия : С потерями
Бит/(Пиксели*Кадры) : 0.164
Размер потока : 627 Мбайт (90%)
Библиотека кодирования : XviD 1.2.1 (UTC 2008-12-04)
Аудио
Идентификатор : 1
Формат : AC-3
Формат/Информация : Audio Coding 3
Расширение режима : CM (complete main)
Параметр Endianness формата : Big
Идентификатор кодека : 2000
Продолжительность : 1 ч. 14 м.
Вид битрейта : Постоянный
Битрейт : 128 Кбит/сек
Каналы : 2 канала
Расположение каналов : Front: L R
Частота : 48,0 КГц
Битовая глубина : 16 бит
Метод сжатия : С потерями
Размер потока : 67,8 Мбайт (10%)
Выравнивание : Разделение по промежуткам
Продолжительность промежутка : 40 мс. (1,00 видеокадр)
Время предзагрузки промежутка : 500 мс.

Скриншоты

[Профиль] [ЛС]
Кто просматривает тему:

Форум Тема Автор Размер
Отечественные cериалы Братья по обмену / Серии: 1-10 из 10 (Александр Жигалкин) [2013, Комедия, HDTV 1080i] К@питан 20.05 GB
Отечественные cериалы Двое с пистолетами [01-16 из 16] (Алексей Гусев)[2014, Иронический детектив, SATRip] К@питан 9.65 GB
Отечественные cериалы Дело чести (Алексей Чистиков) [2013 г., Драма, HDTVRip] (1-16 из 16) Pensioner 10.94 GB
Отечественные cериалы Куба (Алексей Гусев (II), Андрей Щербинин, Роман Ярославцев) [2017 г., Боевик, детектив, криминал, HDTVRip] (1-24 из 24) Pensioner 12.89 GB
Зарубежные сериалы Курт Сеит и Александра / Kurt Seyit ve Sura [01x01-12] (2014) SATRip | D BOSS 16.46 GB
Отечественные cериалы Нити судьбы / Серии: 1-40 из 40 (Мелодрама) (Александр Тименко, Мария Ткачёва, Ева Стрельникова) [2016 г., Мелодрама, SATRip] Pensioner 23.14 GB
Фильмы (HD Rips | 720p, 1080p) Общество мертвых поэтов / Dead Poets Society (Питер Уир / Peter Weir) [1989, США, драма, BDRip 1080p] DUB+MVO+P2+AVO (Алексей Михалёв)+Sub К@питан 15.18 GB
Отечественные фильмы (CAMRip, Telesynch, SCR) Три дня до весны (Александр Касаткин) [2017 г., военный, детектив, CAMRip] BOSS 1.38 GB
Показать сообщения:    

Текущее время: Сегодня 03:44

Часовой пояс: GMT



Вы не можете начинать темы
Вы не можете отвечать на сообщения
Вы не можете редактировать свои сообщения
Вы не можете удалять свои сообщения
Вы не можете голосовать в опросах
Вы не можете прикреплять файлы к сообщениям
Вы не можете скачивать файлы