Александр Заморин | Ретушёр 2015 - Экспертный уровень (2014) PCRec

 
Автор Сообщение

MOTrOSS ®

Пол:

Стаж: 2 года

Сообщений: 207

Откуда: CCCP



Награды: 4 (Подробнее)

Mega Seeder 1 (Количество: 1) Mega Seeder 3 (Количество: 1) Друг (Количество: 1)
Торрент-статистика

Создавать темы 21-Дек-2014 13:22

[Цитировать]

-Александр Заморин | Ретушёр 2015 - Экспертный уровень (2014) PCRec-Автор (режиссер): Александр Заморин, Софи Лебедева
Жанр: Ретушь и обработка фото
Продолжительность: 12:05:38
Качество видео: PCRec
Видеокодек: AVC (H264)
Битрейт видео: ~ 759 Kbps 15fps
Размер кадра: 1280x720
Аудиокодек: AAC
Битрейт аудио: 126 kb/s (CBR), 2 ch, 44000 Hz
Описание:
"Ретушёр 2015", с помощью этого нового видеокурса вы сможете освоить сразу два графических редактора, Adobe Photoshop и Adobe Lightroom, и в этой связке получить тот результат, к которому уже давно стремитесь!
"Ретушёр 2015" это такой видеокурс, вы войдете в который вы абсолютным новичком, даже не знающим как работают маски в Photoshop, а выйдете уже продвинутым специалистом по обработке фотографий.
"Ретушёр 2015" это по-настоящему революционный продукт, потому что авторы специально максимально упростили весь процесс освоения ретуши. Обучение под руководством таких мастеров как Александр Заморин и Софья Лебедева легкое и увлкательное.

Дополнительная информация:

Курс имеет три уровня мастерства для людей любого уровня подготовки:
1. Начальный уровень - 17 уроков
2. Продвинутый уровень - 17 уроков + 12 практических модулей + 6 уроков практической обработки
3. Экспертный уровень - 17 уроков + 6 уроков продвинутой обработки + 15 практических модулей + 4 занятия повышения мастерства + 2 онлайн встречи
Не хватает 1 практического модуля и 2-х встреч которые будут в 2015году

MediaInfo:

General
Complete name : H:\tutorials\Александр Заморин\Ретушер 2015 (2014)\01 - Базовый\1.10_zapovedei.mp4
Format : MPEG-4
Format profile : Base Media / Version 2
Codec ID : mp42
File size : 108 MiB
Duration : 16mn 59s
Overall bit rate : 887 Kbps
Encoded date : UTC 2014-12-08 11:03:35
Tagged date : UTC 2014-12-08 11:03:35
Video
ID : 1
Format : AVC
Format/Info : Advanced Video Codec
Format profile : [url=mailto:High@L3.1]High@L3.1[/url]
Format settings, CABAC : Yes
Format settings, ReFrames : 4 frames
Codec ID : avc1
Codec ID/Info : Advanced Video Coding
Duration : 16mn 59s
Source duration : 16mn 59s
Bit rate : 759 Kbps
Width : 1 280 pixels
Height : 720 pixels
Display aspect ratio : 16:9
Frame rate mode : Constant
Frame rate : 15.000 fps
Color space : YUV
Chroma subsampling : 4:2:0
Bit depth : 8 bits
Scan type : Progressive
Bits/(Pixel*Frame) : 0.055
Stream size : 92.2 MiB (86%)
Source stream size : 92.2 MiB (86%)
Language : English
Encoded date : UTC 2014-12-08 11:03:35
Tagged date : UTC 2014-12-08 11:03:35
Color primaries : BT.709
Transfer characteristics : BT.709
Matrix coefficients : BT.709
mdhd_Duration : 1019394
Audio
ID : 2
Format : AAC
Format/Info : Advanced Audio Codec
Format profile : LC
Codec ID : 40
Duration : 16mn 59s
Source duration : 16mn 59s
Bit rate mode : Constant
Bit rate : 126 Kbps
Channel count : 2 channels
Channel positions : Front: L R
Sampling rate : 44.1 KHz
Compression mode : Lossy
Stream size : 15.3 MiB (14%)
Source stream size : 15.3 MiB (14%)
Language : English
Encoded date : UTC 2014-12-08 11:03:35
Tagged date : UTC 2014-12-08 11:03:35
mdhd_Duration : 1018969
Скриншоты:
[Профиль] [ЛС]
Показать сообщения:    

Текущее время: Сегодня 23:32

Часовой пояс: GMT



Вы не можете начинать темы
Вы не можете отвечать на сообщения
Вы не можете редактировать свои сообщения
Вы не можете удалять свои сообщения
Вы не можете голосовать в опросах
Вы не можете прикреплять файлы к сообщениям
Вы не можете скачивать файлы