Александр в реальной жизни / Alexander IRL (2017) WEBRip 1080p | GreenРай Studio

 
Автор Сообщение

BOSS ®

Пол:

Стаж: 3 года 10 месяцев

Сообщений: 11593

Откуда: ODESSA



Награды: 22 (Подробнее)

Top Keeper 3 (Количество: 1) Top Releaser 5 (Количество: 1) Top Keeper 2 (Количество: 1)
Торрент-статистика

Создавать темы 09-Авг-2018 17:40

[Цитировать]

Информация о фильме
Год выхода: 2017
Наименование: Александр в реальной жизни
Оригинальное наименование: Alexander IRL
Страна: США
Жанр: комедия
Режиссер постановщик: К. Эшер Левин
В главных ролях: Райан Ньюман, Нэйтан Кресс, Микаела Хувер, Сара Гилман, Саймон Рекс, Райан Пинкстон, Маркус Скрибнер, Джейсон Нэш, Дэннис Хэскинс, Джеймс Экхаус
О фильме: Алекс и Джей - братья, не имеющие ничего общего. Алекс - типичный ботаник, который отчаянно хочет быть крутым и завоевать любовь самой крутой девушки в школе Ло. Джей - бывшая легенда старшей школы, тратящая всё время на инновационные изобретения с мечтами стать новым Марком Цукербергом. Когда родители Алекса и Джея покидают город для своего второго медового месяца, братья объединяются, чтобы устроить крутую вечеринку у себя дома с надеждой на то, что Алекс станет королем своего класса, а Джей - новым великим разработчиком приложений.

Файл
Качество: WEBRip 1080p
Видео данные: MKV, 1920x800 (2.40:1), 23.976 fps, 4000 Кбит/с
Аудио данные: AC3, 2 ch, 384 Кбит/с
Перевод: Любительский многоголосый (GreenРай Studio)
Продолжительность: 01:23:47

Медиаинфо

General
Unique ID : 251753938378453015837096002504022206520 (0xBD660B7B8E0DF2CC9AFB0D94181EA838)
Complete name : D:ГРИНРАЙAlexander.IRL.2017.P.WEB-DL.1080p.mkv
Format : Matroska
Format version : Version 4 / Version 2
File size : 2.53 GiB
Duration : 1 h 23 min
Overall bit rate mode : Constant
Overall bit rate : 4 320 kb/s
Encoded date : UTC 2018-08-02 14:02:40
Writing application : mkvmerge v8.3.0 ('Over the Horizon') 64bit
Writing library : libebml v1.3.1 + libmatroska v1.4.2
Video
ID : 1
Format : AVC
Format/Info : Advanced Video Codec
Format profile : Main@L4
Format settings : CABAC / 3 Ref Frames
Format settings, CABAC : Yes
Format settings, RefFrames : 3 frames
Format settings, GOP : M=1, N=15
Codec ID : V_MPEG4/ISO/AVC
Duration : 1 h 23 min
Bit rate mode : Constant
Bit rate : 4 000 kb/s
Width : 1 920 pixels
Height : 800 pixels
Display aspect ratio : 2.40:1
Frame rate mode : Constant
Frame rate : 23.976 (24000/1001) FPS
Standard : NTSC
Color space : YUV
Chroma subsampling : 4:2:0
Bit depth : 8 bits
Scan type : Progressive
Bits/(Pixel*Frame) : 0.109
Stream size : 2.30 GiB (91%)
Language : English
Default : Yes
Forced : No
Color range : Limited
Audio
ID : 2
Format : AC-3
Format/Info : Audio Coding 3
Codec ID : A_AC3
Duration : 1 h 23 min
Bit rate mode : Constant
Bit rate : 384 kb/s
Channel(s) : 2 channels
Channel positions : Front: L R
Sampling rate : 48.0 kHz
Frame rate : 31.250 FPS (1536 SPF)
Bit depth : 16 bits
Compression mode : Lossy
Stream size : 230 MiB (9%)
Service kind : Complete Main
Default : Yes
Forced : No
Внимание, имеется видео и аудио реклама от спонсора показа

Скриншоты

Релиз от:
[Профиль] [ЛС]
Показать сообщения:    

Текущее время: Сегодня 14:50

Часовой пояс: GMT



Вы не можете начинать темы
Вы не можете отвечать на сообщения
Вы не можете редактировать свои сообщения
Вы не можете удалять свои сообщения
Вы не можете голосовать в опросах
Вы не можете прикреплять файлы к сообщениям
Вы не можете скачивать файлы