Александр Великий / Alexander der Große [серии 1-2 из 2] (Martin Carazo Mendez, Christian Twente) [2014 г., Документально-игровой, история, SATRip]

 
Автор Сообщение

skorpionN ®

Пол:

Стаж: 1 год 8 месяцев

Сообщений: 587



Награды: 4 (Подробнее)

Mega Seeder 1 (Количество: 1) Mega Seeder 3 (Количество: 1) Top Releaser 2 (Количество: 1)
Торрент-статистика

Создавать темы 15-Окт-2016 20:54

[Цитировать]

Александр Великий / Alexander der Große [серии 1-2 из 2]
Год выпуска: 2014
Страна: Германия, ZDF Enterprises, Atlantis Film
Жанр: Документально-игровой, история
Продолжительность: 2x~00:43:30
Перевод: Профессиональный (двухголосый), Видеофильм ТВ
Режиссер: Martin Carazo Mendez, Christian Twente
Описание: Александр Великий - один из самых блестящих и загадочных полководцев всех времен. В тридцать лет он правил одной из крупнейших империй в истории. Попробуем разобраться, зачем Александр покорял дальние страны. Кто он? Гениальный полководец или кровожадный тиран? Человек-легенда. Но, в итоге, не сделался ли властолюбивый Александр злейшим врагом самому себе? Казалось бы, без особых усилий, македонец создал самую большую империю древности в течение одиннадцати лет. После его ранней смерти в 323 г. до н.э., империя Александра распадается в течение короткого промежутка времени. Но имперская идея повлияла на последующую историю Европы, от Цезаря до Наполеона и за его пределами.
Список серий:
01. На пути к власти / Auf dem Weg zur Macht
Первый эпизод документального фильма «На пути к власти," фокусируется на детских и юношеских годахы Александра. Какие события в его жизни сыграли важную роль и что имело повлияло на развитие Александра?
02. До края света / Bis ans Ende der Welt
В втором эпизоде фильма - "До края света" мы узнаем о завоеваниях Александра. Александр и его войска идут через Малую Азию, Египет, Персию и Пакистан в Индию - "конец" известного тогда мира ...
Качество: SATRip
Формат: AVI
Видео кодек: XviD
Аудио кодек: AC3
Видео: 720x400 25.00 fps 1800 kbps
Аудио: AC3 2ch, 48kHz, 192 kbps

Скриншоты


MediaInfo:

Format : AVI
Format/Info : Audio Video Interleave
File size : 622 MiB
Duration : 43 min 29 s
Overall bit rate : 1 998 kb/s
Writing application : TMPGEnc Video Mastering Works 5 Version. 5.0.6.38
Writing library : TMPGEnc Video Mastering Works 5 Version. 5.0.6.38
Video
ID : 0
Format : MPEG-4 Visual
Format profile : Advanced Simple@L5
Format settings, BVOP : 2
Format settings, QPel : No
Format settings, GMC : No warppoints
Format settings, Matrix : Default (H.263)
Muxing mode : Packed bitstream
Codec ID : XVID
Codec ID/Hint : XviD
Duration : 43 min 29 s
Bit rate : 1 798 kb/s
Width : 720 pixels
Height : 400 pixels
Display aspect ratio : 16:9
Frame rate : 25.000 FPS
Color space : YUV
Chroma subsampling : 4:2:0
Bit depth : 8 bits
Scan type : Progressive
Compression mode : Lossy
Bits/(Pixel*Frame) : 0.250
Stream size : 559 MiB (90%)
Writing library : XviD 73
Audio
ID : 1
Format : AC-3
Format/Info : Audio Coding 3
Mode extension : CM (complete main)
Format settings, Endianness : Big
Codec ID : 2000
Duration : 43 min 29 s
Bit rate mode : Constant
Bit rate : 192 kb/s
Channel(s) : 2 channels
Channel positions : Front: L R
Sampling rate : 48.0 kHz
Frame rate : 31.250 FPS (1536 spf)
Compression mode : Lossy
Stream size : 59.7 MiB (10%)
Alignment : Aligned on interleaves
Interleave, duration : 240 ms (6.00 video frames)
Interleave, preload duration : 224 ms

Внимание:

Раздача ведётся путём добавления новых серий; при каждом добавлении создаётся новый торрент. Чтобы начать докачку новой серии, пользователям необходимо сделать следующее:
- Остановить скачивание.
- Удалить старый торрент у себя из клиента (старые серии удалять не надо).
- Скачать новый торрент и запустить его у себя в клиенте вместо старого, при этом указать клиенту путь в старую папку куда и должно происходить скачивание новых серий.
Добавлено
02. До края света / Bis ans Ende der Welt


Последний раз редактировалось: skorpionN (2016-10-15 21:38), всего редактировалось 3 раз(а)
[Профиль] [ЛС]
Показать сообщения:    

Текущее время: Сегодня 12:29

Часовой пояс: GMT



Вы не можете начинать темы
Вы не можете отвечать на сообщения
Вы не можете редактировать свои сообщения
Вы не можете удалять свои сообщения
Вы не можете голосовать в опросах
Вы не можете прикреплять файлы к сообщениям
Вы не можете скачивать файлы