Александровский дворец (RTGHD) [2012, Документальный, HDTV 1080i]

 
Автор Сообщение

TorrentFilm ®

Пол:

Стаж: 2 года 6 месяцев

Сообщений: 7773



Награды: Нет

Торрент-статистика

Создавать темы 31-Янв-2015 00:00

[Цитировать]

Александровский дворец
Год выпуска: 2012
Страна: Россия
Жанр: Документальный
Продолжительность: 00:27:41
Перевод: Не требуется
Описание: Последняя резиденция русских царей - Александровский дворец. Любимый дом русской императорской семьи. Здесь родился Николай II, и именно отсюда его увезли в ссылку, где впоследствии расстреляли... Свое начало история парка берет от так называемого "зверинца", охотничьих угодий супруги Петра Великого Екатерины I, где для увеселения императрицы держали различных зверей и птиц. Постепенно лес превратился в парк и царскую резиденцию, где воспитывались великие князья и княгини. Для их обучения была построена готическая башня, искусственная средневековая руина и домик на детском острове. Музейные экспонаты и воссозданные интерьеры передают историю династии Романовых от золотого века Екатерины II до начала 20 столетия.
Доп. информация: IPTV Remux (запись потока без перекодирования).
29.01.2015 - обновление раздачи! Вместо записи с TorrentStream (битрейт 5 мбит) - теперь на раздаче исходник с IPTV (~9 мбит).
Тип релиза: HDTV 1080i
Контейнер: TS
Видео: AVC H.264, 1920x1080i (16:9), 25 fps, 8554 kbps, 0.165 bits/pixel
Аудио: MPEG Audio, 2 channels, 192 kbps, 48KHz

MediaInfo

GeneralID : 1 (0x1)Complete name : Александровский дворец.tsFormat : MPEG-TSFile size : 1.78 GiBDuration : 27mn 41sOverall bit rate mode : VariableOverall bit rate : 9 203 Kbps
VideoID : 601 (0x259)Menu ID : 1 (0x1)Format : AVCFormat/Info : Advanced Video CodecFormat profile : Main@L4.0Format settings, CABAC : YesFormat settings, ReFrames : 3 framesFormat settings, GOP : M=4, N=32Codec ID : 27Duration : 27mn 41sBit rate : 8 554 KbpsWidth : 1 920 pixelsHeight : 1 080 pixelsDisplay aspect ratio : 16:9Frame rate : 25.000 fpsStandard : ComponentColor space : YUVChroma subsampling : 4:2:0Bit depth : 8 bitsScan type : InterlacedScan order : Top Field FirstBits/(Pixel*Frame) : 0.165Stream size : 1.65 GiB (93%)Color primaries : BT.709Transfer characteristics : BT.709Matrix coefficients : BT.709
AudioID : 602 (0x25A)Menu ID : 1 (0x1)Format : MPEG AudioFormat version : Version 1Format profile : Layer 2Codec ID : 3Duration : 27mn 41sBit rate mode : ConstantBit rate : 192 KbpsChannel(s) : 2 channelsSampling rate : 48.0 KHzCompression mode : LossyStream size : 38.0 MiB (2%)Language : Russian

Скриншоты

[Профиль] [ЛС]
Кто просматривает тему:

Форум Тема Автор Размер
Author's Song (Author's Song/Chanson) Александр Розенбаум - Музыка Стихов. Избранное (5CD box) Подарочное издание - 2011,flac(image+.cue), lossless К@питан 2.54 GB
Russian music (other genres) (Шансон) Александр Вестов - Дискография (8 альбомов, 1 сингл + Неизданное) - 2003-2013, MP3, 112-320 kbps Russian Mafia 1.06 GB
Author's Song (Шансон) Александр Новиков - Лучшие песни [Новая Коллекция] - 2004, FLAC (image+.cue), lossless К@питан 501 MB
Russian music (other genres) (Шансон) Брянцев Алексей - Дискография (5 альбомов) 2007-2014, MP3, 320 kbps Russian Mafia 594 MB
365 365: Сети истории / Storia in Rete [выпуски 1-11] (Александра Джиганте / Alessandra Gigante, Фабио Андриола / Fabio Andriola) [2009-2013 г., Документально-игровой, история, архитектура, путешествия... skorpionN 8.77 GB
Animal Planet Animal Planet: Самые опасные змеи с Найджелом Марвином / Ten Deadliest Snakes with Nigel Marven [сезон 1 серии 1-4 из 4] (Алекс Минтон) [2014 г., Документальный, природа, флора, фауна, HDTVRip 720p] skorpionN 6.33 GB
BBC BBC: Сказочный замок короля Людвига II / The Fairytale Castles of king Ludwig II (Александр Лейт / Alexander Leigth) [2013 г., Документальный, архитектура, искусство, история, HDTVRip 720p] skorpionN 1.59 GB
Viasat History Viasat History: Затерянный мир Александра Великого (1-6 серии из 6) / Alexander’s Lost World (Девид Адамс / David Adams) [2013, Документальный, альтернативная история, псевдоистория HDTVRip 720p] TorrentFilm 9.4 GB
Показать сообщения:    

Текущее время: Сегодня 05:43

Часовой пояс: GMT



Вы не можете начинать темы
Вы не можете отвечать на сообщения
Вы не можете редактировать свои сообщения
Вы не можете удалять свои сообщения
Вы не можете голосовать в опросах
Вы не можете прикреплять файлы к сообщениям
Вы не можете скачивать файлы