Александровский дворец (RTGHD) [2012, Документальный, HDTV 1080i]

 
Автор Сообщение

TorrentFilm ®

Пол:

Стаж: 1 год 11 месяцев

Сообщений: 7741



Награды: Нет

Торрент-статистика

Создавать темы 31-Янв-2015 00:00

[Цитировать]

Александровский дворец
Год выпуска: 2012
Страна: Россия
Жанр: Документальный
Продолжительность: 00:27:41
Перевод: Не требуется
Описание: Последняя резиденция русских царей - Александровский дворец. Любимый дом русской императорской семьи. Здесь родился Николай II, и именно отсюда его увезли в ссылку, где впоследствии расстреляли... Свое начало история парка берет от так называемого "зверинца", охотничьих угодий супруги Петра Великого Екатерины I, где для увеселения императрицы держали различных зверей и птиц. Постепенно лес превратился в парк и царскую резиденцию, где воспитывались великие князья и княгини. Для их обучения была построена готическая башня, искусственная средневековая руина и домик на детском острове. Музейные экспонаты и воссозданные интерьеры передают историю династии Романовых от золотого века Екатерины II до начала 20 столетия.
Доп. информация: IPTV Remux (запись потока без перекодирования).
29.01.2015 - обновление раздачи! Вместо записи с TorrentStream (битрейт 5 мбит) - теперь на раздаче исходник с IPTV (~9 мбит).
Тип релиза: HDTV 1080i
Контейнер: TS
Видео: AVC H.264, 1920x1080i (16:9), 25 fps, 8554 kbps, 0.165 bits/pixel
Аудио: MPEG Audio, 2 channels, 192 kbps, 48KHz

MediaInfo

GeneralID : 1 (0x1)Complete name : Александровский дворец.tsFormat : MPEG-TSFile size : 1.78 GiBDuration : 27mn 41sOverall bit rate mode : VariableOverall bit rate : 9 203 Kbps
VideoID : 601 (0x259)Menu ID : 1 (0x1)Format : AVCFormat/Info : Advanced Video CodecFormat profile : Main@L4.0Format settings, CABAC : YesFormat settings, ReFrames : 3 framesFormat settings, GOP : M=4, N=32Codec ID : 27Duration : 27mn 41sBit rate : 8 554 KbpsWidth : 1 920 pixelsHeight : 1 080 pixelsDisplay aspect ratio : 16:9Frame rate : 25.000 fpsStandard : ComponentColor space : YUVChroma subsampling : 4:2:0Bit depth : 8 bitsScan type : InterlacedScan order : Top Field FirstBits/(Pixel*Frame) : 0.165Stream size : 1.65 GiB (93%)Color primaries : BT.709Transfer characteristics : BT.709Matrix coefficients : BT.709
AudioID : 602 (0x25A)Menu ID : 1 (0x1)Format : MPEG AudioFormat version : Version 1Format profile : Layer 2Codec ID : 3Duration : 27mn 41sBit rate mode : ConstantBit rate : 192 KbpsChannel(s) : 2 channelsSampling rate : 48.0 KHzCompression mode : LossyStream size : 38.0 MiB (2%)Language : Russian

Скриншоты

[Профиль] [ЛС]
Показать сообщения:    

Текущее время: Сегодня 18:00

Часовой пояс: GMT



Вы не можете начинать темы
Вы не можете отвечать на сообщения
Вы не можете редактировать свои сообщения
Вы не можете удалять свои сообщения
Вы не можете голосовать в опросах
Вы не можете прикреплять файлы к сообщениям
Вы не можете скачивать файлы