Аладдин / Aladdin (2019) WEB-DL 1080p | HDRezka Studio

 
Author Message

BOSS ®

Gender:

Longevity: 4 years 10 months

Posts: 14162

Location: ODESSA



: 22 ()

Mega Releaser 1 (1) Mega Seeder 1 (1) Top Releaser 2 (1)
Торрент-статистика

Post 12-Aug-2019 17:34

[Quote]

Информация о фильме
Название: Аладдин
Оригинальное название: Aladdin
Год выхода: 2019
Жанр: Мюзикл, фэнтези, мелодрама, комедия, приключения, семейный
Режиссер: Гай Ричи
В ролях: Мена Массуд, Наоми Скотт, Уилл Смит, Билли Магнуссен, Алан Тьюдик, Назим Педрад, Марван Кензари, Нуман Аджар, Фрэнк Уэлкер, Навид Негабан
О фильме: Молодой воришка по имени Аладдин хочет стать принцем, чтобы жениться на принцессе Жасмин. Тем временем визирь Аграбы Джафар намеревается захватить власть над Аграбой, а для этого он стремится заполучить волшебную лампу, хранящуюся в пещере чудес, доступ к которой разрешен лишь тому, кого называют «алмаз неограненный», и этим человеком является не кто иной, как сам Аладдин.

Страна: США
Продолжительность: 02:07:58
Перевод: Профессиональный (многоголосый, закадровый) [HDRezka Studio]
Файл
Кодек: x.264
Качество: WEB-DL 1080p
Видео: AVC, 1920x1080 (16:9), 23.976 fps, 5 912 kb/s
Аудио 1: AC-3, 48.0 kHz, 2 ch, 192 kb/s | RUS (MVO / HDRezka Studio)
Аудио 2: AC-3, 48.0 kHz, 2 ch, 192 kb/s | UKR (DUB / Line)
Аудио 3: AC-3, 48.0 kHz, 6 ch, 384 kb/s | ENG (Оригинал)
Субтитры: английские (full, SDH)
Сэмпл

MI

General
Unique ID : 248998893058522385129649344910123740236 (0xBB537142D5B660918D652BD0A2A62C4C)
Complete name : Aladdin.2019.1080p.WEB-DL.mkv
Format : Matroska
Format version : Version 4
File size : 5.97 GiB
Duration : 2 h 7 min
Overall bit rate : 6 683 kb/s
Encoded date : UTC 2019-08-12 09:43:36
Writing application : mkvmerge v8.3.0 ('Over the Horizon') 64bit
Writing library : libebml v1.3.1 + libmatroska v1.4.2
Video
ID : 1
Format : AVC
Format/Info : Advanced Video Codec
Format profile : High@L4
Format settings : CABAC / 2 Ref Frames
Format settings, CABAC : Yes
Format settings, ReFrames : 2 frames
Codec ID : V_MPEG4/ISO/AVC
Duration : 2 h 7 min
Bit rate : 5 912 kb/s
Width : 1 920 pixels
Height : 1 080 pixels
Display aspect ratio : 16:9
Frame rate mode : Constant
Frame rate : 23.976 (24000/1001) FPS
Color space : YUV
Chroma subsampling : 4:2:0
Bit depth : 8 bits
Scan type : Progressive
Bits/(Pixel*Frame) : 0.119
Stream size : 5.28 GiB (88%)
Writing library : x264 core 155 r2901 7d0ff22
Default : Yes
Forced : No
Color range : Limited
Color primaries : BT.709
Transfer characteristics : BT.709
Matrix coefficients : BT.709
Audio #1
ID : 2
Format : AC-3
Format/Info : Audio Coding 3
Commercial name : Dolby Digital
Codec ID : A_AC3
Duration : 2 h 7 min
Bit rate mode : Constant
Bit rate : 192 kb/s
Channel(s) : 2 channels
Channel layout : L R
Sampling rate : 48.0 kHz
Frame rate : 31.250 FPS (1536 SPF)
Bit depth : 16 bits
Compression mode : Lossy
Stream size : 176 MiB (3%)
Title : MVO (HDRezka Studio)
Language : Russian
Default : Yes
Forced : No
Audio #2
ID : 3
Format : AC-3
Format/Info : Audio Coding 3
Commercial name : Dolby Digital
Codec ID : A_AC3
Duration : 2 h 7 min
Bit rate mode : Constant
Bit rate : 192 kb/s
Channel(s) : 2 channels
Channel layout : L R
Sampling rate : 48.0 kHz
Frame rate : 31.250 FPS (1536 SPF)
Bit depth : 16 bits
Compression mode : Lossy
Stream size : 176 MiB (3%)
Title : DUB (Ledoyen, Line)
Language : Ukrainian
Default : No
Forced : No
Audio #3
ID : 4
Format : AC-3
Format/Info : Audio Coding 3
Commercial name : Dolby Digital
Codec ID : A_AC3
Duration : 2 h 7 min
Bit rate mode : Constant
Bit rate : 384 kb/s
Channel(s) : 6 channels
Channel layout : L R C LFE Ls Rs
Sampling rate : 48.0 kHz
Frame rate : 31.250 FPS (1536 SPF)
Bit depth : 16 bits
Compression mode : Lossy
Stream size : 351 MiB (6%)
Language : English
Default : No
Forced : No
Text #1
ID : 5
Format : UTF-8
Codec ID : S_TEXT/UTF8
Codec ID/Info : UTF-8 Plain Text
Duration : 1 h 58 min
Bit rate : 50 b/s
Count of elements : 1682
Stream size : 43.4 KiB (0%)
Title : Full
Language : English
Default : No
Forced : No
Text #2
ID : 6
Format : UTF-8
Codec ID : S_TEXT/UTF8
Codec ID/Info : UTF-8 Plain Text
Duration : 2 h 7 min
Bit rate : 69 b/s
Count of elements : 2433
Stream size : 65.1 KiB (0%)
Title : SDH
Language : English
Default : No
Forced : No

Скриншоты

[Profile] [PM]
Display posts from previous:    

The time now is: Today 15:19

All times are GMT



You cannot post new topics in this forum
You cannot reply to topics in this forum
You cannot edit your posts in this forum
You cannot delete your posts in this forum
You cannot vote in polls in this forum
You cannot attach files in this forum
You cannot download files in this forum