Аладдин / Aladdin (1992) BDRip [720p]

 
Автор Сообщение

sergej644 ®

Пол:

Стаж: 4 года 11 месяцев

Сообщений: 6046

Откуда: Soviet Union



Награды: Нет

Торрент-статистика

Создавать темы 13-Янв-2015 23:22

[Цитировать]

-Аладдин / Aladdin (1992) BDRip [720p]
« Imagine if you had three wishes, three hopes, three dreams and they all could come true »
- Производство: США | Walt Disney Pictures, Walt Disney Feature Animation
Жанр: Мультфильм, Мюзикл, Фэнтези, Мелодрама, Комедия, Приключения, Семейный
Режиссер: Рон Клементс, Джон Маскер
Продюсер: Рон Клементс, Джон Маскер, Дональд В. Эрнст
Актеры: Скотт Венгер, Робин Уильямс, Линда Ларкин, Джонатан Фриман, Фрэнк Уэлкер, Гилберт Готтфрид, Дуглас Сил, Чарльз Адлер, Джек Эйнджел, Кори Бертон, Деби Дерриберри
Описание фильма: В славном граде Аграба живет Аладдин, веселый воришка с золотым сердцем. Живет и не знает, что вскоре его ждет величайшее приключение в жизни. Ведь только с его помощью черный маг Джафар может овладеть невероятным сокровищем - лампой, в которой заключен исполняющий желания могущественный Джинн. И только хитроумие, смекалка и доброта Аладдина и его друзей - обезьянки Абу, принцессы Жасмин и самого Джинна способны помешать Джафару завладеть лампой и захватить власть над миром…

Возраст: 0+ Для любой зрительской аудитории
Рейтинг MPAA: G Нет возрастных ограничений
Продолжительность: 01:30:40
Качество видео: BDRip [720p]
Перевод: Профессиональный дублированный, профессиональный двухголосый, авторский
Вид субтитров: Вшитые отключаемые
Язык субтитров: Русский (Forced, Full), английский
Видео: MPEG-4 AVC/H.264, 5000 Kbps, 1280 x 694
Аудио 1: Русский AC3 5.1, 640 Kbps, 48.0 KHz (Полное дублирование) Blu-ray CEE
Аудио 2: Русский DTS 5.1, 1509 Kbps, 48.0 KHz (Двухголосый закадровый) П. Гланц и И. Королёва
Аудио 3: Русский DTS 5.1, 1509 Kbps, 48.0 KHz (Одноголосый закадровый) А. Михалёв
Аудио 4: Английский DTS 5.1, 1509 Kbps, 48.0 KHz (Оригинал)

Blu-ray

MediaInfo

Общее
Полное имя : Аладдин.mkv
Формат : Matroska
Версия формата : Version 1
Размер файла : 6,44 Гбайт
Продолжительность : 1 ч. 30 м.
Общий поток : 10,2 Мбит/сек
Дата кодирования : UTC 2015-01-04 09:01:22
Программа кодирования : mkvmerge v2.4.1 ('Use Me') built on Dec 5 2008 18:30:05
Библиотека кодирования : libebml v0.7.7 + libmatroska v0.8.1
Видео
Идентификатор : 1
Формат : AVC
Формат/Информация : Advanced Video Codec
Профиль формата : [url=mailto:High@L4.1]High@L4.1[/url]
Параметр CABAC формата : Да
Параметр ReFrames формата : 9 кадров
Идентификатор кодека : V_MPEG4/ISO/AVC
Продолжительность : 1 ч. 30 м.
Битрейт : 5000 Кбит/сек
Ширина : 1280 пикселей
Высота : 694 пикселя
Соотношение сторон : 1,85:1
Режим частоты кадров : Постоянный
Частота кадров : 23,976 кадра/сек
Цветовое пространство : YUV
Субдискретизация насыщенности : 4:2:0
Битовая глубина : 8 бит
Тип развёртки : Прогрессивная
Бит/(Пиксели*Кадры) : 0.235
Размер потока : 3,04 Гбайт (47%)
Заголовок : Аладдин (1992)
Библиотека кодирования : x264 core 129 r2245 bc13772
Настройки программы : cabac=1 / ref=9 / deblock=1:-3:-3 / analyse=0x3:0x133 / me=umh / subme=10 / psy=1 / psy_rd=1.00:0.10 / mixed_ref=1 / me_range=48 / chroma_me=1 / trellis=2 / 8x8dct=1 / cqm=0 / deadzone=21,11 / fast_pskip=0 / chroma_qp_offset=-3 / threads=6 / lookahead_threads=1 / sliced_threads=0 / nr=0 / decimate=1 / interlaced=0 / bluray_compat=0 / constrained_intra=0 / bframes=5 / b_pyramid=2 / b_adapt=2 / b_bias=0 / direct=3 / weightb=1 / open_gop=0 / weightp=2 / keyint=240 / keyint_min=22 / scenecut=40 / intra_refresh=0 / rc_lookahead=40 / rc=2pass / mbtree=1 / bitrate=5000 / ratetol=1.0 / qcomp=0.60 / qpmin=10 / qpmax=51 / qpstep=4 / cplxblur=20.0 / qblur=0.5 / ip_ratio=1.40 / aq=1:1.00
Язык : English
Аудио #1
Идентификатор : 2
Формат : AC-3
Формат/Информация : Audio Coding 3
Расширение режима : CM (complete main)
Параметр Endianness формата : Big
Идентификатор кодека : A_AC3
Продолжительность : 1 ч. 30 м.
Вид битрейта : Постоянный
Битрейт : 640 Кбит/сек
Каналы : 6 каналов
Расположение каналов : Front: L C R, Side: L R, LFE
Частота : 48,0 КГц
Битовая глубина : 16 бит
Метод сжатия : С потерями
Размер потока : 415 Мбайт (6%)
Заголовок : AC3 (Дублированный) Blu-ray CEE
Язык : Russian
Аудио #2
Идентификатор : 3
Формат : DTS
Формат/Информация : Digital Theater Systems
Режим : 16
Параметр Endianness формата : Big
Идентификатор кодека : A_DTS
Продолжительность : 1 ч. 30 м.
Вид битрейта : Постоянный
Битрейт : 1509 Кбит/сек
Каналы : 6 каналов
Расположение каналов : Front: L C R, Side: L R, LFE
Частота : 48,0 КГц
Битовая глубина : 24 бит
Метод сжатия : С потерями
Размер потока : 979 Мбайт (15%)
Заголовок : DTS (Двухголосый) П. Гланц и И. Королёва
Язык : Russian
Аудио #3
Идентификатор : 4
Формат : DTS
Формат/Информация : Digital Theater Systems
Режим : 16
Параметр Endianness формата : Big
Идентификатор кодека : A_DTS
Продолжительность : 1 ч. 30 м.
Вид битрейта : Постоянный
Битрейт : 1509 Кбит/сек
Каналы : 6 каналов
Расположение каналов : Front: L C R, Side: L R, LFE
Частота : 48,0 КГц
Битовая глубина : 24 бит
Метод сжатия : С потерями
Размер потока : 979 Мбайт (15%)
Заголовок : DTS (Одноголосый) А. Михалёв
Язык : Russian
Аудио #4
Идентификатор : 5
Формат : DTS
Формат/Информация : Digital Theater Systems
Режим : 16
Параметр Endianness формата : Big
Идентификатор кодека : A_DTS
Продолжительность : 1 ч. 30 м.
Вид битрейта : Постоянный
Битрейт : 1509 Кбит/сек
Каналы : 6 каналов
Расположение каналов : Front: L C R, Side: L R, LFE
Частота : 48,0 КГц
Битовая глубина : 24 бит
Метод сжатия : С потерями
Размер потока : 979 Мбайт (15%)
Заголовок : DTS (Оригинал)
Язык : English
Текст #1
Идентификатор : 6
Формат : UTF-8
Идентификатор кодека : S_TEXT/UTF8
Идентификатор кодека/Информация : UTF-8 Plain Text
Заголовок : Русские (Форсированные)
Язык : Russian
Текст #2
Идентификатор : 7
Формат : UTF-8
Идентификатор кодека : S_TEXT/UTF8
Идентификатор кодека/Информация : UTF-8 Plain Text
Заголовок : Русские
Язык : Russian
Текст #3
Идентификатор : 8
Формат : UTF-8
Идентификатор кодека : S_TEXT/UTF8
Идентификатор кодека/Информация : UTF-8 Plain Text
Заголовок : Английские
Язык : English

Дополнительно

* Мультфильм создан по мотивам сказки об Аладдине из сказок «1001 ночи».
* В цветовой гамме мультфильма преобладают насыщенные синие и красные цвета, а также их оттенки (например, в некоторых сценах тени сделаны сиреневыми). Ричард Вандер Венде, художник фильма, был автором концепции, в которой каждый цвет являлся воплощением какого-либо настроения или эмоции. Так, синий цвет символизирует здесь хорошее, а красный — плохое.
* Аладдин, над которым трудилась команда под руководством ведущего аниматора Глена Кена, изначально делался похожим на актёра Майкла Джея Фокса. В ходе работы персонаж подвергся ряду изменений и обрёл черты Тома Круза, рэпера MС Hammer и моделей Кэлвина Клейна.
* В фильме звучат одни из последних песен, написанных Ховардом Эшманом. Он, вместе с Аланом Менкеном, написал «Арабские песни», «Такой друг, как я», «Принц Али». Когда Ашман скончался, компания пригласила обладателя награды Тони, Тима Райса, для того, чтобы закончить написание песен. Он стал автором таких песен, как «Один скачок вперед», «Целый новый мир» и «Принц Али» (финальный вариант).
* Робин Уильямс работал за «актерскую таксу» ($ 485 в день — минимум Гильдии Актеров), плюс картина Пабло Пикассо.
* Сцена в самом начале фильма, где уличный торговец предлагает зрителю свой товар, была создана так: Робина Уильямса, озвучивающего торговца, привели на студию звукозаписи, в которой стоял ящик с различными предметами, накрытый покрывалом. Затем включили микрофон, покрывало сняли, и Уильямс стал описывать эти предметы, которые первый раз в жизни видел.
* Персонажи в некоторых сценах рисовались разными аниматорами в разное время и в разных студиях (во Флориде и в Калифорнии). К первому из нарисованных персонажей поверх дорисовывался второй, и аниматорам приходилось отслеживать, чтобы их движения при взаимодействии идеально совпадали.
* Абу был озвучен Фрэнком Уэлкером — актёром, специализирующемся именно на озвучивании животных (среди прочего, он озвучивал обезьян в фильме «Индиана Джонс: В поисках утраченного ковчега» (1981)).
* Эпизод с песней Джинна «Friend Like Me» был закончен первым, до того как образ Аладдина был утверждён окончательно. Поэтому в этом эпизоде можно увидеть Аладдина таким, каким он должен был быть во всём остальном фильме.
* Знак «Аплодисменты» после песни Джинна появился, когда продюсер Джеффри Катценберг спросил у аниматоров, почему на предварительных просмотрах никто не аплодирует после песен. Аниматоры в шутку пририсовали этот знак, и в итоге он остался и в финальной версии.
* Маскер и Клементс придумывали Джинна с оглядкой на Робина Уильямса; даже когда Катценберг предложил кандидатуры Джона Кэнди, Стива Мартина и Эдди Мерфи, у Уильямса были лучшие шансы, и в итоге утвердили именно его.
* Ховард Эшман утвердил сценарий лишь после того, как свои правки внесли Рон Клементс, Джон Маскер и сценаристы Тед Эллиотт и Терри Россио. Среди прочего, из сценария исчезла мать Аладдина, Принцесса Жасмин стала более волевым персонажем, Аладдин — «чуть грубее, как молодой Харрисон Форд», а попугай Яго, задуманный как по-британски невозмутимый серьёзный персонаж, обратился в комический образ, вдохновлённый игрой Гилберта Готтфрида в фильме «Полицейский из Беверли-Хиллз 2» (1987).
* «Исламская комиссия по правам человека» критиковала мультфильм за создание негативного образа мусульман. По её мнению, арабы в фильме (кроме «прогрессивного» и «либерального» Аладдина) в общем представлены злобными и жадными людьми, стремящимся к богатству и власти.
* Кадры мультфильма раскрашены при помощи системы CAPS. Также с её помощью было создано большинство отражений, лава в «Пещере чудес» и значительная часть спецэффектов.
* В одной из сцен, когда Джинн колдует, можно заметить другого диснеевского персонажа — краба Себастьяна, из мультфильма «Русалочка» (1989).
* В пирамидке, которую строит султан, помимо фигурок животных присутствует фигурка «чудовища» из диснеевского мультфильма «Красавица и чудовище» (1991).
Скриншоты:
Время раздачи: С 9:00 до 21:00
[Профиль] [ЛС]
Показать сообщения:    

Текущее время: Сегодня 20:44

Часовой пояс: GMT



Вы не можете начинать темы
Вы не можете отвечать на сообщения
Вы не можете редактировать свои сообщения
Вы не можете удалять свои сообщения
Вы не можете голосовать в опросах
Вы не можете прикреплять файлы к сообщениям
Вы не можете скачивать файлы