Аладдин и король разбойников / Aladdin and the King of Thieves (1996) BDRip 720p | D

 
Автор Сообщение

Russian Mafia ®

Пол:

Стаж: 1 год 8 месяцев

Сообщений: 4257



Награды: 10 (Подробнее)

Top Releaser 2 (Количество: 1) Mega Seeder 4 (Количество: 1) Mega Seeder 1 (Количество: 1)
Торрент-статистика

Создавать темы 13-Апр-2016 10:42

[Цитировать]

-- --Король разбойников-- Год выпуска: 1996
Страна: США
Жанр: мультфильм, комедия, приключения
Продолжительность: 01:21:32
Перевод: Дублированный-Режиссер: Тэд Стоунс
В ролях: Робин Уильямс, Скотт Венгер, Линда Ларкин, Джон Рис-Дэвис, Гилберт Готтфрид, Джерри Орбах, Вэл Бэттин, Фрэнк Уэлкер, Джефф Беннетт, Джим Каммингс-Описание: Все жители Аграбы дружно готовятся к величайшему празднику — вот-вот состоится долгожданная свадьба Аладдина и принцессы Жасмин! Но сначала нашему герою придется остановить легендарную шайку сорока разбойников — ведь они хотят похитить свадебный подарок — всевидящего Оракула, с помощью которого злодеи хотят отыскать и прибрать к своим рукам все сокровища мира.

Качество видео: BDRip 720
Видео: AVC, 1280x720, 23.976 fps, 4203 kbps
Аудио #1: AC3, 6 ch, 384 kbps;
Субтитры: | Отсутствуют |

Знаете ли вы, что...

1. Идея создать этот фильм появилась из сериала (серия под названием «Мозенрат»).
2. После улаживания разногласий с Диснеем Робин Уильямс (голос Джина) решил вернуться в этот фильм.
3. Шон Коннери должен был озвучить Кассима, но совпадение графика с другим фильмом, не позволили ему это сделать.

Скриншоты

MediaInfo

Общее
Уникальный идентификатор : 223127777442432617310984984053019405699 (0xA7DCD8C7E41B0B0989857C43D05D6D83)
Полное имя : C:UsersДзамболатDownloadsАладдин.mkv
Формат : Matroska
Версия формата : Version 4 / Version 2
Размер файла : 2,58 Гбайт
Продолжительность : 1 ч. 21 м.
Общий поток : 4537 Кбит/сек
Дата кодирования : UTC 2016-04-12 20:56:17 / UTC 2016-04-12T18:08:03Z
Программа кодирования : mkvmerge v8.9.0 ('Father Daughter') 64bit
Библиотека кодирования : libebml v1.3.3 + libmatroska v1.4.4 / Lavf55.12.0
Видео
Идентификатор : 1
Формат : AVC
Формат/Информация : Advanced Video Codec
Профиль формата : High@L4.1
Параметр CABAC формата : Да
Параметр ReFrames формата : 4 кадра
Идентификатор кодека : V_MPEG4/ISO/AVC
Продолжительность : 1 ч. 21 м.
Битрейт : 4203 Кбит/сек
Ширина : 1280 пикселей
Высота : 720 пикселей
Соотношение сторон : 16:9
Режим частоты кадров : Постоянный
Частота кадров : 23,976 (24000/1001) кадра/сек
Цветовое пространство : YUV
Субдискретизация насыщенности : 4:2:0
Битовая глубина : 8 бит
Тип развёртки : Прогрессивная
Бит/(Пиксели*Кадры) : 0.190
Размер потока : 2,31 Гбайт (90%)
Библиотека кодирования : x264 core 142 r2479 dd79a61
Настройки программы : cabac=1 / ref=3 / deblock=1:0:0 / analyse=0x3:0x113 / me=hex / subme=7 / psy=1 / psy_rd=1.00:0.00 / mixed_ref=1 / me_range=16 / chroma_me=1 / trellis=1 / 8x8dct=1 / cqm=0 / deadzone=21,11 / fast_pskip=1 / chroma_qp_offset=-2 / threads=6 / lookahead_threads=1 / sliced_threads=0 / nr=0 / decimate=1 / interlaced=0 / bluray_compat=0 / constrained_intra=0 / bframes=3 / b_pyramid=2 / b_adapt=1 / b_bias=0 / direct=1 / weightb=1 / open_gop=0 / weightp=2 / keyint=240 / keyint_min=24 / scenecut=40 / intra_refresh=0 / rc_lookahead=40 / rc=abr / mbtree=1 / bitrate=4203 / ratetol=1.0 / qcomp=0.60 / qpmin=0 / qpmax=69 / qpstep=4 / vbv_maxrate=62500 / vbv_bufsize=78125 / nal_hrd=none / filler=0 / ip_ratio=1.40 / aq=1:1.00
Default : Да
Forced : Нет
Цветовой диапазон : Limited
Основные цвета : BT.709
Характеристики трансфера : BT.709
Коэффициенты матрицы : BT.709
Statistics Tags Issue : mkvmerge v8.9.0 ('Father Daughter') 64bit 2016-04-12 20:56:17 / mkvmerge v8.9.0 ('Father Daughter') 64bit 2016-04-12 20:56:17 / UTC 2016-04-12T18:08:03Z
FromStats_BitRate : 4151920
FromStats_Duration : 01:21:31.979000000
FromStats_FrameCount : 117290
FromStats_StreamSize : 2538888698
Аудио
Идентификатор : 2
Формат : AC-3
Формат/Информация : Audio Coding 3
Расширение режима : CM (complete main)
Параметр Endianness формата : Big
Идентификатор кодека : A_AC3
Продолжительность : 1 ч. 21 м.
Вид битрейта : Постоянный
Битрейт : 384 Кбит/сек
Каналы : 6 каналов
Расположение каналов : Front: L C R, Side: L R, LFE
Частота : 48,0 КГц
Частота кадров : 31,250 кадров/сек (1536 spf)
Метод сжатия : С потерями
Задержка видео : -83 мс.
Размер потока : 224 Мбайт (8%)
Default : Да
Forced : Нет
Statistics Tags Issue : mkvmerge v8.9.0 ('Father Daughter') 64bit 2016-04-12 20:56:17 / mkvmerge v8.9.0 ('Father Daughter') 64bit 2016-04-12 20:56:17 / UTC 2016-04-12T18:08:03Z
FromStats_BitRate : 384000
FromStats_Duration : 01:21:32.608000000
FromStats_FrameCount : 152894
FromStats_StreamSize : 234845184
[Профиль] [ЛС]
Показать сообщения:    

Текущее время: Сегодня 23:31

Часовой пояс: GMT



Вы не можете начинать темы
Вы не можете отвечать на сообщения
Вы не можете редактировать свои сообщения
Вы не можете удалять свои сообщения
Вы не можете голосовать в опросах
Вы не можете прикреплять файлы к сообщениям
Вы не можете скачивать файлы