Акулье озеро / Shark Lake (2015) WEB-DL 720p | L2

 
Автор Сообщение

BOSS ®

Пол:

Стаж: 2 года 1 месяц

Сообщений: 3735

Откуда: ODESSA



Награды: 20 (Подробнее)

Top Keeper 4 (Количество: 1) Mega Seeder 5 (Количество: 1) Top Keeper 3 (Количество: 1)
Торрент-статистика

Создавать темы 19-Ноя-2015 16:16

[Цитировать]

Информация о фильме
Название: Акулье озеро
Оригинальное название: Shark Lake
Год выхода: 2015
Жанр: триллер
Режиссер: Джерри Дуган
В ролях: Дольф Лундгрен, Сара Малакул Лэйн, Джеймс Чалк, Майкл Аарон Миллиган, Ибрахим Ренно мл., Майлз Долеак, Лэнс Э. Николс, Эли Бардха, Melissa Bolona, Патрик Кернс
О фильме: Клинт был одним из лучших контрабандистов экзотических видов животных в округе озера Тахо, работал на влиятельного преступного авторитета и старался в одиночку воспитывать маленькую дочь. Однажды копы вышли на него и устроили ночную облаву, но Клинту удалось вырваться на фургоне с ценным грузом. В результате полицейской погони мужчина слетает с дороги в озеро и его арестовывают, а контрабанда исчезает в водной пучине. Задержавшая Клинта женщина-полицейский Мередит Хендрикс - лучший коп департамента шерифа, удочеряет оставшегося без надзора ребёнка и вместе с матерью пытается дать ей лучшую жизнь.

Выпущено: США / Bottom Line Entertainment, Parkside Pictures, Tadross Media Group
Продолжительность: 01:32:33
Озвучивание: Любительское (двухголосое) [Parovoz Production]
Файл
Формат: MKV
Качество: WEB-DL 720p
Видео: MPEG-4 AVC, 3794 kb/s, 1280x714
Аудио: Russian: AC3, 192 kb/s (2 ch) / English: AC3, 384 kb/s (6 ch)

MI

Format : Matroska
Format version : Version 2
File size : 2.88 GiB
Duration : 1h 32mn
Overall bit rate : 4 458 Kbps
Encoded date : UTC 2015-11-19 15:13:45
Writing application : mkvmerge v7.8.0 ('River Man') 32bit built on Apr 3 2015 12:11:22
Writing library : libebml v1.3.1 + libmatroska v1.4.2
Video
ID : 1
Format : AVC
Format/Info : Advanced Video Codec
Format profile : High@L3.1
Format settings, CABAC : No
Format settings, ReFrames : 2 frames
Codec ID : V_MPEG4/ISO/AVC
Duration : 1h 32mn
Bit rate : 3 794 Kbps
Width : 1 280 pixels
Height : 714 pixels
Display aspect ratio : 16:9
Frame rate mode : Constant
Frame rate : 23.976 fps
Color space : YUV
Chroma subsampling : 4:2:0
Bit depth : 8 bits
Scan type : Progressive
Bits/(Pixel*Frame) : 0.173
Stream size : 2.45 GiB (85%)
Language : English
Default : Yes
Forced : No
Color range : Limited
Color primaries : BT.709
Transfer characteristics : BT.709
Matrix coefficients : BT.709
Audio #1
ID : 2
Format : AC-3
Format/Info : Audio Coding 3
Mode extension : CM (complete main)
Format settings, Endianness : Big
Codec ID : A_AC3
Duration : 1h 32mn
Bit rate mode : Constant
Bit rate : 192 Kbps
Channel(s) : 2 channels
Channel positions : Front: L R
Sampling rate : 48.0 KHz
Bit depth : 16 bits
Compression mode : Lossy
Stream size : 127 MiB (4%)
Language : Russian
Default : Yes
Forced : No
Audio #2
ID : 3
Format : AC-3
Format/Info : Audio Coding 3
Mode extension : CM (complete main)
Format settings, Endianness : Big
Codec ID : A_AC3
Duration : 1h 32mn
Bit rate mode : Constant
Bit rate : 384 Kbps
Channel(s) : 6 channels
Channel positions : Front: L C R, Side: L R, LFE
Sampling rate : 48.0 KHz
Bit depth : 16 bits
Compression mode : Lossy
Stream size : 254 MiB (9%)
Language : English
Default : No
Forced : No
Menu
00:00:00.000 : en:Chapter 1
00:10:26.000 : en:Chapter 2
00:18:52.000 : en:Chapter 3
00:29:57.000 : en:Chapter 4
00:39:26.000 : en:Chapter 5
00:50:51.000 : en:Chapter 6
01:01:40.000 : en:Chapter 7
01:10:36.000 : en:Chapter 8
01:22:13.000 : en:Chapter 9
01:25:19.000 : en:Chapter 10

Скриншоты



[Профиль] [ЛС]
Показать сообщения:    

Текущее время: Сегодня 08:14

Часовой пояс: GMT



Вы не можете начинать темы
Вы не можете отвечать на сообщения
Вы не можете редактировать свои сообщения
Вы не можете удалять свои сообщения
Вы не можете голосовать в опросах
Вы не можете прикреплять файлы к сообщениям
Вы не можете скачивать файлы