Акулы 3D / IMAX - Sharks 3D (Жан-Жак Мантелло / Jean-Jacques Mantello) [2004, документальный, HDRip] Dub

 
Автор Сообщение

reversefile ®

Пол:

Стаж: 4 года 5 месяцев

Сообщений: 842

Откуда: ReverseFile.org



Награды: Нет

Торрент-статистика

Создавать темы 11-Авг-2014 06:20

[Цитировать]

Акулы 3D
IMAX - Sharks 3D

«Захватывающее путешествие в мир самых опасных обитателей океана»
Год выпуска: 2004
Страна: Франция, Великобритания, Багамы
Жанр: документальный
Продолжительность: 00:41:35
Перевод: Профессиональный (дублированный) Blu-Ray
Русские субтитры: нет
Оригинальная аудиодорожка: нет-Режиссер: Жан-Жак Мантелло / Jean-Jacques Mantello-Описание: Представленный Жаном-Мишелем Кусто трехмерный фильм «Акулы 3D» - это захватывающее зрелище, где публика имеет возможность буквально лицом к лицу встретиться со «львами» и «тиграми» мирового океана. Среди них - большая белая, китовая и рыба-молот. Познакомьтесь с ними в их естественной среде обитания, постаравшись увидеть в них не пресловутых хищников-людоедов, а просто больших и красивых рыб, существовавших на Земле еще задолго до появления динозавров. Присоединяйтесь к команде опытных исследователей моря, которые отправляются в новую кругосветную экспедицию, чтобы запечатлеть на пленку жизнь самых опасных хищников мирового океана.-Сэмпл | kinopoisk.ru | IMdB-Качество: HDRip | исх. BDRip 1080p ⇒
Формат: AVI
Видео: 720x400 (16:9), 23,976 fps, XviD build 65, ~2095 kbps avg, 0.30 bit/pixel
Аудио: 48.0 kHz, AC3 Dolby Digital, 3/2 (L,C,R,l,r) + LFE ch, ~448.00 kbps avg (Dub)

MediaInfo

ОбщееПолное имя : A:\Фильмы\IMAX.Sharks.2004.HDRip.aviФормат : AVIФормат/Информация : Audio Video InterleaveРазмер файла : 759 МбайтПродолжительность : 41 м.Общий поток : 2552 Кбит/секПрограмма кодирования : VirtualDubMod 1.5.10.2 (build 2540/release)Библиотека кодирования : VirtualDubMod build 2540/release
ВидеоИдентификатор : 0Формат : MPEG-4 VisualПрофиль формата : Advanced Simple@L5Параметр BVOP формата : 1Параметр QPel формата : НетПараметр GMC формата : Без точки переходаПараметр матрицы формата : Default (H.263)Идентификатор кодека : XVIDИдентификатор кодека/Подсказка : XviDПродолжительность : 41 м.Битрейт : 2095 Кбит/секШирина : 720 пикселейВысота : 400 пикселейСоотношение сторон : 16:9Частота кадров : 23,976 кадра/секЦветовое пространство : YUVСубдискретизация насыщенности : 4:2:0Битовая глубина : 8 битТип развёртки : ПрогрессивнаяМетод сжатия : С потерямиБит/(Пиксели*Кадры) : 0.303Размер потока : 623 Мбайт (82%)Библиотека кодирования : XviD 65
АудиоИдентификатор : 1Формат : AC-3Формат/Информация : Audio Coding 3Расширение режима : CM (complete main)Параметр Endianness формата : BigИдентификатор кодека : 2000Продолжительность : 41 м.Вид битрейта : ПостоянныйБитрейт : 448 Кбит/секКаналы : 6 каналовРасположение каналов : Front: L C R, Side: L R, LFEЧастота : 48,0 КГцБитовая глубина : 16 битМетод сжатия : С потерямиРазмер потока : 133 Мбайт (18%)Выравнивание : Разделение по промежуткамПродолжительность промежутка : 42 мс. (1,00 видеокадр)Время предзагрузки промежутка : 500 мс.

Скриншоты


[Профиль] [ЛС]
Показать сообщения:    

Текущее время: Сегодня 12:32

Часовой пояс: GMT



Вы не можете начинать темы
Вы не можете отвечать на сообщения
Вы не можете редактировать свои сообщения
Вы не можете удалять свои сообщения
Вы не можете голосовать в опросах
Вы не можете прикреплять файлы к сообщениям
Вы не можете скачивать файлы