Акулы на свободе / Sharkansas Women's Prison Massacre (2016) BDRip 720p | P

 
Автор Сообщение

достали все ®

Пол:

Стаж: 1 год 8 месяцев

Сообщений: 6524



Награды: 12 (Подробнее)

За внесенный вклад в развитие сайта (Количество: 1) Mega Releaser 1 (Количество: 1) Mega Releaser 3 (Количество: 1)
Торрент-статистика

Создавать темы 24-Апр-2016 03:47

[Цитировать]

Информация о фильме
Название: Акулы на свободе
Оригинальное название: Sharkansas Women's Prison Massacre
Год выхода: 2016
Жанр: ужасы, фантастика, боевик
Режиссер: Джим Уайнорски
В ролях: Доминик Суэйн, Трейси Лордс, Синди Лукас, Кристин Нгуйен, Джон Каллахан, Джон Арчер Лунгрен, Эми Холт, Кори Лэндис, Skye McDonald, Оскар ДеРоса
О фильме: Фантастический боевик о кровожадных акулах, каким-то чудом оказавшихся в мелких водоемах американского городка. Плановые взрывы недалеко от озера беспокоят дремавшую все это время акулу-убийцу. Закончив работу, трудяги-саперы решают выпить по бутылочке пива в баре, который находится недалеко отсюда. Хвастаясь возможностями своего внедорожника, один из рабочих едет прямо по болоту, не подозревая, что уже очень скоро гигантская хищная акула попросту собьет машину… Вскоре в лесу находят изуродованный, разорванный на части труп. Детективы подозревают, что это сделал крокодил, но под перевернутой лодкой они находят полуживого старика, который повторяет лишь одно слово: «акула».

Выпущено: США / CALUV Films
Продолжительность: 01:23:51
Озвучивание: Профессиональное (многоголосое) [Официальный звук]
Файл
Формат: MKV
Качество: BDRip 720p
Видео: MPEG-4 AVC, 5952 kb/s, 1280x720
Аудио: Russian: AC3, 192 kb/s (2 ch) / English: AC3, 1509 kb/s (6 ch)

MI

Format : Matroska
Format version : Version 2
File size : 4.48 GiB
Duration : 1h 23mn
Overall bit rate : 7 655 Kbps
Encoded date : UTC 2016-04-23 20:38:44
Writing application : mkvmerge v7.8.0 ('River Man') 32bit built on Apr 3 2015 12:11:22
Writing library : libebml v1.3.1 + libmatroska v1.4.2
Video
ID : 1
Format : AVC
Format/Info : Advanced Video Codec
Format profile : High@L4.1
Format settings, CABAC : Yes
Format settings, ReFrames : 5 frames
Codec ID : V_MPEG4/ISO/AVC
Duration : 1h 23mn
Bit rate : 5 952 Kbps
Width : 1 280 pixels
Height : 720 pixels
Display aspect ratio : 16:9
Frame rate mode : Constant
Frame rate : 23.976 fps
Color space : YUV
Chroma subsampling : 4:2:0
Bit depth : 8 bits
Scan type : Progressive
Bits/(Pixel*Frame) : 0.269
Stream size : 3.40 GiB (76%)
Writing library : x264 core 148 r2692 64f4e24
Encoding settings : cabac=1 / ref=5 / deblock=1:0:0 / analyse=0x3:0x133 / me=umh / subme=7 / psy=1 / psy_rd=1.00:0.00 / mixed_ref=1 / me_range=16 / chroma_me=1 / trellis=1 / 8x8dct=1 / cqm=0 / deadzone=21,11 / fast_pskip=0 / chroma_qp_offset=-2 / threads=18 / lookahead_threads=3 / sliced_threads=0 / nr=0 / decimate=1 / interlaced=0 / bluray_compat=0 / constrained_intra=0 / bframes=3 / b_pyramid=2 / b_adapt=1 / b_bias=0 / direct=1 / weightb=1 / open_gop=0 / weightp=2 / keyint=250 / keyint_min=23 / scenecut=40 / intra_refresh=0 / rc_lookahead=40 / rc=2pass / mbtree=1 / bitrate=5952 / ratetol=1.0 / qcomp=0.60 / qpmin=0 / qpmax=69 / qpstep=4 / cplxblur=20.0 / qblur=0.5 / ip_ratio=1.40 / aq=1:1.00
Language : English
Default : Yes
Forced : No
Audio #1
ID : 2
Format : AC-3
Format/Info : Audio Coding 3
Mode extension : CM (complete main)
Format settings, Endianness : Big
Codec ID : A_AC3
Duration : 1h 23mn
Bit rate mode : Constant
Bit rate : 192 Kbps
Channel(s) : 2 channels
Channel positions : Front: L R
Sampling rate : 48.0 KHz
Bit depth : 16 bits
Compression mode : Lossy
Stream size : 115 MiB (3%)
Language : Russian
Default : Yes
Forced : No
Audio #2
ID : 3
Format : DTS
Format/Info : Digital Theater Systems
Mode : 16
Format settings, Endianness : Big
Codec ID : A_DTS
Duration : 1h 23mn
Bit rate mode : Constant
Bit rate : 1 509 Kbps
Channel(s) : 6 channels
Channel positions : Front: L C R, Side: L R, LFE
Sampling rate : 48.0 KHz
Bit depth : 24 bits
Compression mode : Lossy
Stream size : 905 MiB (20%)
Language : English
Default : No
Forced : No
Menu
00:00:00.000 : en:00:00:00.000
00:05:38.046 : en:00:05:38.046
00:11:38.281 : en:00:11:38.281
00:18:09.297 : en:00:18:09.297
00:25:08.048 : en:00:25:08.048
00:31:24.758 : en:00:31:24.758
00:37:45.263 : en:00:37:45.263
00:44:02.348 : en:00:44:02.348
00:51:12.361 : en:00:51:12.361
00:57:15.015 : en:00:57:15.015
01:04:07.469 : en:01:04:07.469
01:12:29.971 : en:01:12:29.971

Скриншоты



[Профиль] [ЛС]
Показать сообщения:    

Текущее время: Сегодня 15:57

Часовой пояс: GMT



Вы не можете начинать темы
Вы не можете отвечать на сообщения
Вы не можете редактировать свои сообщения
Вы не можете удалять свои сообщения
Вы не можете голосовать в опросах
Вы не можете прикреплять файлы к сообщениям
Вы не можете скачивать файлы