Академия Платона / Akadimia Platonos / Plato\'s Academy (Филиппос Цитос / Filippos Tsitos) [2009, Греция, трагикомедия, DVDRip] Sub Rus

 
Автор Сообщение

TorrentFilm ®

Пол:

Стаж: 2 года

Сообщений: 7741



Награды: Нет

Торрент-статистика

Создавать темы 26-Дек-2015 00:15

[Цитировать]

Академия Платона
Akadimia Platonos--Страна: Греция
Жанр: трагикомедия
Год выпуска: 2009
Продолжительность: 01:42:53-Перевод: Субтитры (by sonnyb)
Cубтитры: русские
Оригинальная аудиодорожка: греческий-Режиссер: Филиппос Цитос / Filippos Tsitos
В ролях: Антонис Кафедзопулос, Анастасис Коздине, Титика Саригули, Йоргос Сусекс, Костас Коронаиос-Описание: Ставрос-владелец табачной лавки вместе с тремя друзьями занят тем, что считают китайцев на другой стороне улицы: их количество растет с каждым днем. Собака Патриот лает, когда мимо проходит албанец. Ставрос тоже патриот, но однажды албанец признает в матери Ставроса свою давно потерянную мать…-Международный кинофестиваль в Локарно - 2009:
Лауреат Приза экуменического жюри (Филлипос Цитос)
Лауреат Серебряного леопарда за лучшую мужскую роль (Антонис Кафедзопулос)
Номинант на Золотого леопарда (Филлипос Цитос)-От режиссера фильма Несправедливый мир / Adikos kosmos (2011)-Качество видео: DVDRip
Формат видео: AVI
Видео: XVID MPEG-4, 720x384, 1582,67 kbit/s, 25,0000 fps,
Аудио: AC3 Audio, 448,00 kbit/s, 48000 Hz, Channels: 6
Формат субтитров: softsub (SRT)

MediaInfo

Формат : AVI
Формат/Информация : Audio Video Interleave
Размер файла : 1,46 Гбайт
Продолжительность : 1 ч. 42 м.
Общий поток : 2038 Кбит/сек
Программа кодирования : VirtualDubMod 1.5.4.1 (build 2178/release)
Библиотека кодирования : VirtualDubMod build 2178/release
Видео
Идентификатор : 0
Формат : MPEG-4 Visual
Профиль формата : Advanced Simple@L5
Параметр BVOP формата : Нет
Параметр QPel формата : Нет
Параметр GMC формата : Без точки перехода
Параметр матрицы формата : Выборочная
Идентификатор кодека : XVID
Идентификатор кодека/Подсказка : XviD
Продолжительность : 1 ч. 42 м.
Битрейт : 1583 Кбит/сек
Ширина : 720 пикселей
Высота : 384 пикселя
Соотношение сторон : 1,85:1
Частота кадров : 25,000 кадров/сек
Цветовое пространство : YUV
Субдискретизация насыщенности : 4:2:0
Битовая глубина : 8 бит
Тип развёртки : Прогрессивная
Метод сжатия : С потерями
Бит/(Пиксели*Кадры) : 0.229
Размер потока : 1,14 Гбайт (78%)
Библиотека кодирования : XviD 1.2.1 (UTC 2008-12-04)
Аудио
Идентификатор : 1
Формат : AC-3
Формат/Информация : Audio Coding 3
Расширение режима : CM (complete main)
Параметр Endianness формата : Big
Идентификатор кодека : 2000
Продолжительность : 1 ч. 42 м.
Вид битрейта : Постоянный
Битрейт : 448 Кбит/сек
Каналы : 6 каналов
Расположение каналов : Front: L C R, Side: L R, LFE
Частота : 48,0 КГц
Частота кадров : 31,250 кадров/сек (1536 spf)
Метод сжатия : С потерями
Размер потока : 330 Мбайт (22%)
Выравнивание : Разделение по промежуткам
Продолжительность промежутка : 96 мс. (2,40 видеокадра)
Время предзагрузки промежутка : 96 мс.
Язык : Greek
Пример субтитров">

Скриншоты Пример субтитров


1
00:01:08,720 --> 00:01:10,790
Кто это там стоит?
2
00:01:13,840 --> 00:01:15,831
Как его зовут?
3
00:01:24,440 --> 00:01:27,876
Её состояние медленно ухудшается.
4
00:01:30,400 --> 00:01:31,913
Ставрос.
5
00:01:36,040 --> 00:01:40,033
То она узнаёт меня, то не узнаёт.
6
00:01:41,440 --> 00:01:42,998
Иногда я Ставрос...
7
00:01:43,240 --> 00:01:45,390
иногда Салих, иногда Ремзи.
8
00:01:45,760 --> 00:01:47,955
Она смотрит турецкие мыльные оперы?
9
00:01:50,720 --> 00:01:53,792
Второй инсульт может оказаться смертельным.
10
00:01:57,120 --> 00:01:59,111
Ещё один вопрос...
11
00:01:59,720 --> 00:02:01,756
У меня кое-какие проблемы со сном.
12
00:02:01,960 --> 00:02:04,474
- То есть?
- Я не могу спать.
13
00:02:05,480 --> 00:02:09,519
Иду в кровать, а затем просыпаюсь...
И снова пытаюсь заснуть...
14
00:02:10,840 --> 00:02:13,877
- С каких это пор?
- Уже много лет.
15
00:02:17,320 --> 00:02:18,673
У вас какой-то стресс?
16
00:02:18,920 --> 00:02:20,433
Мама, пойдём.
17
00:02:20,600 --> 00:02:22,158
Чем вы занимаетесь в жизни?
18
00:02:22,320 --> 00:02:24,515
У меня небольшой магазинчик.
Это так важно?
19
00:02:24,680 --> 00:02:26,750
Всё важно.
20
00:02:27,040 --> 00:02:30,157
У вашей жизни что-нибудь не так?
21
00:02:31,720 --> 00:02:34,757
А вы можете забрать мою жизнь и дать мне чью-то другую?
22
00:02:37,280 --> 00:02:43,150
~ Академия Платона ~
23
[Профиль] [ЛС]

Создавать темы 12-Июн-2016 07:56 (спустя 5 месяцев 17 дней)

Топик был перенесен из форума Фильмы 2011 года в форум Фильмы 2009 года
Russian Mafia
 
Кто просматривает тему:

Форум Тема Автор Размер
Dance, Club (Dance, Club, Pop) VA - GiGa Euro Hits (академия хитов) - 2005, MP3, 256 kbps reversefile 588 MB
Chanson (Шансон) VA - Облако из дыма. Академия хитов шансона - 2015, MP3, 256 kbps Magnat 912 MB
Chanson (Шансон) VA - Разлучница. Академия хитов шансона - 2015, MP3, 256 kbps Magnat 697 MB
Chanson (Шансон) Сборник - Бродяга по жизни. Академия хитов шансона - 2015, MP3, VBR 192-320 kbps Magnat 662 MB
Chanson (Шансон) Сборник - Геометрия судьбы. Академия хитов шансона - 2015, MP3, VBR 192-320 kbps Magnat 1.38 GB
Chanson (Шансон) Сборник - Одна на всей земле. Академия хитов шансона - 2015, MP3, 256 kbps Magnat 913 MB
XXXI Летние Олимпийские игры. Рио-де-Жанейро 2016 (Бразилия) XXXI Летние Олимпийские Игры. Рио-де-Жанейро (Бразилия). Академическая гребля. Мужчины. Женщины. Квалификация, утро [09.08] (2016) IPTV 1080i BOSS 4.86 GB
XXXI Летние Олимпийские игры. Рио-де-Жанейро 2016 (Бразилия) XXXI Летние Олимпийские Игры. Рио-де-Жанейро (Бразилия). Академическая гребля. Мужчины. Женщины. Финалы [13.08] (2016) IPTVRip-AVC Russian Mafia 1.85 GB
Показать сообщения:    

Текущее время: Сегодня 16:23

Часовой пояс: GMT



Вы не можете начинать темы
Вы не можете отвечать на сообщения
Вы не можете редактировать свои сообщения
Вы не можете удалять свои сообщения
Вы не можете голосовать в опросах
Вы не можете прикреплять файлы к сообщениям
Вы не можете скачивать файлы