Академия вампиров / Vampire Academy (Марк Уотерс / Mark Waters) [2014, США, ужасы, фэнтези, боевик, BDRip] MVO

 
Автор Сообщение

Создавать темы 14-Июл-2014 09:08

Академия вампиров / Vampire Academy«Blood is family. Blood is pain. And blood is death»- Год выхода: 2014
Жанр: ужасы, фэнтези, боевик, комедия, детектив
Страна: США / Angry Films, Kintop Pictures, Preger Entertainment
Продолжительность: 01:44:22
Перевод: Любительский (многоголосый, закадровый) BaibaKo
Субтитры: нет-Режиссер: Марк Уотерс / Mark Waters-В ролях: Зои Дойч, Люси Фрай, Данила Козловский, Доминик Шервуд, Сара Хайланд, Гэбриел Бирн, Сами Гэйл, Ольга Куриленко, Джоэли Ричардсон, Камерон Монахэн, Эшли Чарльз, Клер Фой, Доминик Типпер, Эдвард Холкрофт, Бронте Норман-Террелл, Крис Мэйсон, Бен Пил, Бен Пил, Рамон Тикарам, Гарри Брэдшоу, Шелли Лонгуорт-Описание: Мало кому известно, что в Америке, в самом сердце Монтаны, имеется настоящая Академия, где вампиры обучаются высокому искусству магии. И почти никто не знает, что в мире идут кровавые вампирские войны и расе мороев противостоит жестокое племя стригоев, вампиров, переступивших черту закона и не гнушающихся убийством. Даже стены Академии, святая святых науки, не слишком надежная защита от происков темных сил. Юная моройская принцесса Лисса и Роза, ее подруга и верный страж, однажды убеждаются в этом, оказавшись в эпицентре грозных событий.- -Сэмпл: http://multi-up.com/976058-Качество: BDRip [BDRemux / 1080p / кинозал]
Формат: AVI
Видео: 688x288 (2.39:1), 23.976 fps, XviD build 73 ~860 kbps avg, 0.18 bit/pixel
Аудио: 48 kHz, MPEG Layer 3, 2 ch, ~128.00 kbps avg
-

Media Info

Формат                                   : AVI
Формат/Информация                        : Audio Video Interleave
Размер файла                             : 745 Мбайт
Продолжительность                        : 1 ч. 44 м.
Общий поток                              : 998 Кбит/сек
Программа кодирования                    : VirtualDubMod 1.5.10.3 | www.virtualdub-fr.org || (build 2550/release)
Библиотека кодирования                   : VirtualDubMod build 2550/release
Видео
Идентификатор                            : 0
Формат                                   : MPEG-4 Visual
Профиль формата                          : Advanced Simple@L5
Параметр BVOP формата                    : 1
Параметр QPel формата                    : Нет
Параметр GMC формата                     : Без точки перехода
Параметр матрицы формата                 : Выборочная
Идентификатор кодека                     : XVID
Идентификатор кодека/Подсказка           : XviD
Продолжительность                        : 1 ч. 44 м.
Битрейт                                  : 861 Кбит/сек
Ширина                                   : 688 пикселей
Высота                                   : 288 пикселей
Соотношение сторон                       : 2,40:1
Частота кадров                           : 23,976 кадра/сек
Цветовое пространство                    : YUV
Субдискретизация насыщенности            : 4:2:0
Битовая глубина                          : 8 бит
Тип развёртки                            : Прогрессивная
Метод сжатия                             : С потерями
Бит/(Пиксели*Кадры)                      : 0.181
Размер потока                            : 643 Мбайт (86%)
Библиотека кодирования                   : XviD 73
Аудио
Идентификатор                            : 1
Формат                                   : MPEG Audio
Версия формата                           : Version 1
Профиль формата                          : Layer 3
Идентификатор кодека                     : 55
Идентификатор кодека/Подсказка           : MP3
Продолжительность                        : 1 ч. 44 м.
Вид битрейта                             : Постоянный
Битрейт                                  : 128 Кбит/сек
Каналы                                   : 2 канала
Частота                                  : 48,0 КГц
Метод сжатия                             : С потерями
Размер потока                            : 95,6 Мбайт (13%)
Выравнивание                             : Соединение по промежуткам
Продолжительность промежутка             : 42  мс. (1,00 видеокадр)
Время предзагрузки промежутка            : 504  мс.

Скриншоты

 
Кто просматривает тему:

Форум Тема Автор Размер
Dance, Club (Dance, Club, Pop) VA - GiGa Euro Hits (академия хитов) - 2005, MP3, 256 kbps reversefile 588 MB
Chanson (Шансон) VA - Облако из дыма. Академия хитов шансона - 2015, MP3, 256 kbps Magnat 912 MB
Chanson (Шансон) VA - Разлучница. Академия хитов шансона - 2015, MP3, 256 kbps Magnat 697 MB
Chanson (Шансон) Сборник - Бродяга по жизни. Академия хитов шансона - 2015, MP3, VBR 192-320 kbps Magnat 662 MB
Chanson (Шансон) Сборник - Геометрия судьбы. Академия хитов шансона - 2015, MP3, VBR 192-320 kbps Magnat 1.38 GB
Chanson (Шансон) Сборник - Одна на всей земле. Академия хитов шансона - 2015, MP3, 256 kbps Magnat 913 MB
XXXI Летние Олимпийские игры. Рио-де-Жанейро 2016 (Бразилия) XXXI Летние Олимпийские Игры. Рио-де-Жанейро (Бразилия). Академическая гребля. Мужчины. Женщины. Квалификация, утро [09.08] (2016) IPTV 1080i BOSS 4.86 GB
XXXI Летние Олимпийские игры. Рио-де-Жанейро 2016 (Бразилия) XXXI Летние Олимпийские Игры. Рио-де-Жанейро (Бразилия). Академическая гребля. Мужчины. Женщины. Финалы [13.08] (2016) IPTVRip-AVC Russian Mafia 1.85 GB
Показать сообщения:    

Текущее время: Сегодня 22:09

Часовой пояс: GMT



Вы не можете начинать темы
Вы не можете отвечать на сообщения
Вы не можете редактировать свои сообщения
Вы не можете удалять свои сообщения
Вы не можете голосовать в опросах
Вы не можете прикреплять файлы к сообщениям
Вы не можете скачивать файлы