Аистёнок / За горами, за морями / Kurepoeg (Эльберт Туганов / Elbert Tuganov) [1967, мультфильм, VHSRip]

 
Автор Сообщение

TorrentFilm ®

Пол:

Стаж: 2 года

Сообщений: 7741



Награды: Нет

Торрент-статистика

Создавать темы 07-Янв-2015 00:01

[Цитировать]

Аистёнок / За горами, за морями / Kurepoeg
Страна: СССР (Эстонская республика)
Жанр: мультфильм
Продолжительность: 00:18:43
Год выпуска: 1967
Перевод: не требуется
Русские субтитры: нет
Режиссёр: Эльберт Туганов / Elbert Tuganov
Описание: Рассказ о приключениях маленького аистёнка, летающего при помощи специального двигателя. Во время полёта в тёплые края аистёнок попал в песчаный смерч, побывал в племени папуасов и познакомился с чернокожим парнишкой, вместе с которым они поймали грабителя египетской гробницы.
Качество: VHSRip
Формат: AVI
Видео: 2380 kbps, 720х544 (4:3), 25.000 fps, MPEG-4 Visual (XviD)
Аудио: 128 kbps, 48.0 kHz, 2 channels, MPEG Audio (MP3)
Субтитры: отсутствуют

Подробные технические данные

GeneralComplete name : Kurepoeg (1967).aviFormat : AVIFormat/Info : Audio Video InterleaveFile size : 337 MiBDuration : 18mn 43sOverall bit rate : 2 518 KbpsWriting application : VirtualDubMod 1.5.4.1 (build 2178/release)Writing library : VirtualDubMod build 2178/release
VideoID : 0Format : MPEG-4 VisualFormat profile : Advanced Simple@L5Format settings, BVOP : 1Format settings, QPel : NoFormat settings, GMC : No warppointsFormat settings, Matrix : CustomCodec ID : XVIDCodec ID/Hint : XviDDuration : 18mn 43sBit rate : 2 380 KbpsWidth : 720 pixelsHeight : 544 pixelsDisplay aspect ratio : 4:3Frame rate : 25.000 fpsColor space : YUVChroma subsampling : 4:2:0Bit depth : 8 bitsScan type : ProgressiveCompression mode : LossyBits/(Pixel*Frame) : 0.243Stream size : 319 MiB (95%)Writing library : XviD 1.0.0 (UTC 2004-05-09)
AudioID : 1Format : MPEG AudioFormat version : Version 1Format profile : Layer 3Mode : Joint stereoMode extension : MS StereoCodec ID : 55Codec ID/Hint : MP3Duration : 18mn 43sBit rate mode : ConstantBit rate : 128 KbpsChannel(s) : 2 channelsSampling rate : 48.0 KHzCompression mode : LossyStream size : 17.1 MiB (5%)Alignment : Aligned on interleavesInterleave, duration : 40 ms (1.00 video frame)Interleave, preload duration : 504 ms

Скриншоты

[Профиль] [ЛС]
Кто просматривает тему:

Показать сообщения:    

Текущее время: Сегодня 02:10

Часовой пояс: GMT



Вы не можете начинать темы
Вы не можете отвечать на сообщения
Вы не можете редактировать свои сообщения
Вы не можете удалять свои сообщения
Вы не можете голосовать в опросах
Вы не можете прикреплять файлы к сообщениям
Вы не можете скачивать файлы