Азиатский связной / The Asian Connection (2016) WEB-DL 1080p | L

 
Автор Сообщение

достали все ®

Пол:

Стаж: 1 год 8 месяцев

Сообщений: 6611



Награды: 12 (Подробнее)

Mega Releaser 2 (Количество: 1) За внесенный вклад в развитие сайта (Количество: 1) Mega Releaser 3 (Количество: 1)
Торрент-статистика

Создавать темы 18-Май-2016 03:07

[Цитировать]

Информация о фильме
Название: Азиатский связной
Оригинальное название: The Asian Connection
Год выхода: 2016
Жанр: боевик
Режиссер: Дэниэл Дзирилли
В ролях: Стивен Сигал, Майкл Джей Уайт, Pim Bubear, Рон Смуренбург, Дэймон Уитакер, Сахайак Бунсанакит, Джон Ли, Дин Александру, Натали Лоренс, Байрон Гибсон
О фильме: Американские эмигранты, Джек и Сэм, грабят банки в Юго-Восточной Азии и случайно крадут деньги принадлежащие наркобарону, после чего они стали объектом мести местной преступной группировки. Вскоре Сэма убивают и Джек разыскивает Пом, любовь всей жизни, вместе они становятся современными Бонни и Клайд, в одиночку пытающиеся противостоять банде наркоторговцев.

Выпущено: Таиланд / Kaos Entertainment Inc., Parkside Pictures, Tadross Media Group
Продолжительность: 01:31:36
Озвучивание: Любительское (многоголосое) [Parovoz Production]
Примечание: Релиз без рекламы.
Файл
Формат: MKV
Качество: WEB-DL 1080p
Видео: MPEG-4 AVC, 4252 kb/s, 1912x796
Аудио: Russian: AC3, 192 kb/s (2 ch) / English: AC3, 384 kb/s (6 ch)

MI

Format : Matroska
Format version : Version 2
File size : 3.15 GiB
Duration : 1h 31mn
Overall bit rate : 4 926 Kbps
Encoded date : UTC 2016-05-17 21:35:01
Writing application : mkvmerge v7.8.0 ('River Man') 32bit built on Apr 3 2015 12:11:22
Writing library : libebml v1.3.1 + libmatroska v1.4.2
Video
ID : 1
Format : AVC
Format/Info : Advanced Video Codec
Format profile : High@L4
Format settings, CABAC : Yes
Format settings, ReFrames : 5 frames
Codec ID : V_MPEG4/ISO/AVC
Duration : 1h 31mn
Bit rate : 4 252 Kbps
Width : 1 912 pixels
Height : 796 pixels
Display aspect ratio : 2.40:1
Frame rate mode : Constant
Frame rate : 23.976 fps
Color space : YUV
Chroma subsampling : 4:2:0
Bit depth : 8 bits
Scan type : Progressive
Bits/(Pixel*Frame) : 0.117
Stream size : 2.72 GiB (86%)
Language : English
Default : Yes
Forced : No
Color range : Limited
Color primaries : BT.709
Transfer characteristics : BT.709
Matrix coefficients : BT.709
Audio #1
ID : 2
Format : AC-3
Format/Info : Audio Coding 3
Mode extension : CM (complete main)
Format settings, Endianness : Big
Codec ID : A_AC3
Duration : 1h 31mn
Bit rate mode : Constant
Bit rate : 192 Kbps
Channel(s) : 2 channels
Channel positions : Front: L R
Sampling rate : 48.0 KHz
Bit depth : 16 bits
Compression mode : Lossy
Stream size : 126 MiB (4%)
Language : Russian
Default : Yes
Forced : No
Audio #2
ID : 3
Format : AC-3
Format/Info : Audio Coding 3
Mode extension : CM (complete main)
Format settings, Endianness : Big
Codec ID : A_AC3
Duration : 1h 31mn
Bit rate mode : Constant
Bit rate : 384 Kbps
Channel(s) : 6 channels
Channel positions : Front: L C R, Side: L R, LFE
Sampling rate : 48.0 KHz
Bit depth : 16 bits
Compression mode : Lossy
Stream size : 252 MiB (8%)
Language : English
Default : No
Forced : No
Menu
00:00:00.000 : en:Chapter 1
00:07:46.049 : en:Chapter 2
00:16:17.518 : en:Chapter 3
00:25:48.964 : en:Chapter 4
00:35:06.062 : en:Chapter 5
00:43:14.300 : en:Chapter 6
00:52:47.498 : en:Chapter 7
01:02:01.635 : en:Chapter 8
01:12:21.379 : en:Chapter 9
01:20:04.216 : en:Chapter 10
01:29:49.259 : en:Chapter 11

Скриншоты




[Профиль] [ЛС]
Показать сообщения:    

Текущее время: Сегодня 16:55

Часовой пояс: GMT



Вы не можете начинать темы
Вы не можете отвечать на сообщения
Вы не можете редактировать свои сообщения
Вы не можете удалять свои сообщения
Вы не можете голосовать в опросах
Вы не можете прикреплять файлы к сообщениям
Вы не можете скачивать файлы