Азербайджан. Путешествие в страну огней (RTGHD) [2014, Документальный, HDTV 1080i]

 
Автор Сообщение

TorrentFilm ®

Пол:

Стаж: 2 года

Сообщений: 7741



Награды: Нет

Торрент-статистика

Создавать темы 02-Фев-2015 00:00

[Цитировать]

Азербайджан. Путешествие в страну огней
Год выпуска: 2014
Страна: Россия
Жанр: Документальный
Продолжительность: 00:51:47
Перевод: Не требуется
Описание: Земля Огня. Так чаще всего называют Азербайджан, страну с древней историей и множеством интересных мест, которые обязательно нужно увидеть своими глазами. Пламя стало символом Азербайджана еще в глубокой древности, когда повсюду на Апшеронском полуострове прямо из земли полыхал огонь, таинственный и неугасимый. Это край, где сосредоточено более трети всех грязевых вулканов планеты, а на западе страны действует месторождение нафталановой нефти, способной исцелять многие недуги. Ведущий Игорь Максименко отправился на север Азербайджана, чтобы познакомиться с природными красотами и древними достопримечательностями этой страны.
Доп. информация: IPTV Remux (запись потока без перекодирования).
01.02.2015 - обновление раздачи! Вместо записи с TorrentStream (битрейт 5 мбит) - теперь на раздаче исходник с IPTV (~9 мбит).
Тип релиза: HDTV 1080i
Контейнер: TS
Видео: AVC H.264, 1920x1080i (16:9), 25 fps, 8352 kbps, 0.161 bits/pixel
Аудио: MPEG Audio, 2 channels, 192 kbps, 48KHz

MediaInfo

GeneralID : 1 (0x1)Complete name : Азербайджан. Путешествие в страну огней.tsFormat : MPEG-TSFile size : 3.25 GiBDuration : 51mn 47sOverall bit rate mode : VariableOverall bit rate : 8 990 Kbps
VideoID : 601 (0x259)Menu ID : 1 (0x1)Format : AVCFormat/Info : Advanced Video CodecFormat profile : Main@L4.0Format settings, CABAC : YesFormat settings, ReFrames : 3 framesCodec ID : 27Duration : 51mn 47sBit rate : 8 352 KbpsWidth : 1 920 pixelsHeight : 1 080 pixelsDisplay aspect ratio : 16:9Frame rate : 25.000 fpsStandard : ComponentColor space : YUVChroma subsampling : 4:2:0Bit depth : 8 bitsScan type : InterlacedScan order : Top Field FirstBits/(Pixel*Frame) : 0.161Stream size : 3.02 GiB (93%)Color primaries : BT.709Transfer characteristics : BT.709Matrix coefficients : BT.709
AudioID : 602 (0x25A)Menu ID : 1 (0x1)Format : MPEG AudioFormat version : Version 1Format profile : Layer 2Codec ID : 3Duration : 51mn 47sBit rate mode : ConstantBit rate : 192 KbpsChannel(s) : 2 channelsSampling rate : 48.0 KHzCompression mode : LossyStream size : 71.1 MiB (2%)Language : Russian

Скриншоты

[Профиль] [ЛС]
Показать сообщения:    

Текущее время: Сегодня 10:08

Часовой пояс: GMT



Вы не можете начинать темы
Вы не можете отвечать на сообщения
Вы не можете редактировать свои сообщения
Вы не можете удалять свои сообщения
Вы не можете голосовать в опросах
Вы не можете прикреплять файлы к сообщениям
Вы не можете скачивать файлы