Ад каннибалов / Cannibal Holocaust (1980) BDRemux 1080p | USA Transfer | P, 2xA

 
Автор Сообщение

sergej644 ®

Пол:

Стаж: 4 года 11 месяцев

Сообщений: 6040

Откуда: Soviet Union



Награды: Нет

Торрент-статистика

Создавать темы 17-Фев-2015 18:58

[Цитировать]

Информация о фильме
Название: Ад каннибалов
Оригинальное название: Cannibal Holocaust
Год выхода: 1980
Жанр: ужасы, приключения
Режиссер: Руджеро Деодато
В ролях: Роберт Керман, Франческа Кьярди, Перри Пирканен, Лука Барбарески, Сальваторе Базиле, Рикардо Фуэнтес, Карл Гэбриел Йорк, Паоло Паолони, Лионелло Пио Ди Савойя, Луиджина Рокки
Описание: Несколько молодых репортеров отправляются в дебри Амазонки, чтобы снять сенсационный фильм о последних людоедах, оставшихся на Земле.
Попав туда, где не бывал еще ни один европеец, они бесследно исчезают. Что с ними случилось? Какие ужасные секреты хранит амазонская сельва?

Страна: Италия
Продолжительность: 01:35:44
Перевод: Профессиональный (многоголосый закадровый)
+ Авторский (одноголосый, закадровый) Сергей Визгунов
+ Авторский (одноголосый, закадровый) Андрей Гаврилов
+ Авторский (одноголосый, закадровый) Владимир Штейн
+ оригинал
Файл
Кодек: MPEG-4
Качество: BDRemux 1080p [Grindhouse Releasing (USA) Three-disc set (2014)]
Видео: High@L4.1, 1920x1080, 23,976 fps, 25187 kbps
Аудио 1: Русский многоголосый: AC3, 48 kHz, 2.0, 192 kbps
Аудио 2: Русский одноголосый: AC3, 48 kHz, 2.0, 192 kbps | Сергей Визгунов
Аудио 3: Русский одноголосый: AC3, 48 kHz, 2.0, 192 kbps | Андрей Гаврилов
Аудио 4: Русский одноголосый: AC3, 48 kHz, 2.0, 192 kbps | Владимир Штейн
Аудио 5: Английский: DTS-HDMA, 2140 kbps, 2.0, 48 kHz, 24-bit (Core: 2.0, 48 kHz, 1509 kbps)
Аудио 6: Английский: DTS-HDMA, 1079 kbps, 1.0, 48 kHz, 24-bit (Core: 1.0, 48 kHz, 768 kbps
Субтитры: русские, английские

MediaInfo

Формат : Matroska
Версия формата : Version 4 / Version 2
Размер файла : 19,5 Гбайт
Продолжительность : 1 ч. 35 м.
Режим общего битрейта : Переменный
Общий поток : 29,2 Мбит/сек
Дата кодирования : UTC 2015-01-30 07:54:36
Программа кодирования : mkvmerge v7.5.0 ('Glass Culture') 64bit built on Jan 4 2015 16:48:44
Библиотека кодирования : libebml v1.3.1 + libmatroska v1.4.2
DURATION : 01:31:41.900000000
NUMBER_OF_FRAMES : 760
NUMBER_OF_BYTES : 42419
Видео
Идентификатор : 1
Формат : AVC
Формат/Информация : Advanced Video Codec
Профиль формата : High@L4.1
Параметр CABAC формата : Да
Параметр ReFrames формата : 4 кадра
Идентификатор кодека : V_MPEG4/ISO/AVC
Продолжительность : 1 ч. 35 м.
Вид битрейта : Переменный
Максимальный битрейт : 37,0 Мбит/сек
Ширина : 1920 пикселей
Высота : 1080 пикселей
Соотношение сторон : 16:9
Режим частоты кадров : Постоянный
Частота кадров : 23,976 кадра/сек
Стандарт вещания : NTSC
Цветовое пространство : YUV
Субдискретизация насыщенности : 4:2:0
Битовая глубина : 8 бит
Тип развёртки : Прогрессивная
Заголовок : Ад каннибалов / Cannibal Holocaust (1980) BD-Remux
Язык : English
Default : Да
Forced : Нет
Основные цвета : BT.709
Характеристики трансфера : BT.709
Коэффициенты матрицы : BT.709
Аудио #1
Идентификатор : 2
Формат : AC-3
Формат/Информация : Audio Coding 3
Расширение режима : CM (complete main)
Параметр Endianness формата : Big
Идентификатор кодека : A_AC3
Продолжительность : 1 ч. 35 м.
Вид битрейта : Постоянный
Битрейт : 192 Кбит/сек
Каналы : 2 канала
Расположение каналов : Front: L R
Частота : 48,0 КГц
Битовая глубина : 16 бит
Метод сжатия : С потерями
Размер потока : 131 Мбайт (1%)
Заголовок : MVO
Язык : Russian
Default : Да
Forced : Нет
Аудио #2
Идентификатор : 3
Формат : AC-3
Формат/Информация : Audio Coding 3
Расширение режима : CM (complete main)
Параметр Endianness формата : Big
Идентификатор кодека : A_AC3
Продолжительность : 1 ч. 35 м.
Вид битрейта : Постоянный
Битрейт : 192 Кбит/сек
Каналы : 2 канала
Расположение каналов : Front: L R
Частота : 48,0 КГц
Битовая глубина : 16 бит
Метод сжатия : С потерями
Размер потока : 131 Мбайт (1%)
Заголовок : AVO Визгунов
Язык : Russian
Default : Нет
Forced : Нет
Аудио #3
Идентификатор : 4
Формат : AC-3
Формат/Информация : Audio Coding 3
Расширение режима : CM (complete main)
Параметр Endianness формата : Big
Идентификатор кодека : A_AC3
Продолжительность : 1 ч. 35 м.
Вид битрейта : Постоянный
Битрейт : 192 Кбит/сек
Каналы : 2 канала
Расположение каналов : Front: L R
Частота : 48,0 КГц
Битовая глубина : 16 бит
Метод сжатия : С потерями
Размер потока : 131 Мбайт (1%)
Заголовок : AVO Гаврилов
Язык : Russian
Default : Нет
Forced : Нет
Аудио #4
Идентификатор : 5
Формат : AC-3
Формат/Информация : Audio Coding 3
Расширение режима : CM (complete main)
Параметр Endianness формата : Big
Идентификатор кодека : A_AC3
Продолжительность : 1 ч. 35 м.
Вид битрейта : Постоянный
Битрейт : 192 Кбит/сек
Каналы : 2 канала
Расположение каналов : Front: L R
Частота : 48,0 КГц
Битовая глубина : 16 бит
Метод сжатия : С потерями
Размер потока : 131 Мбайт (1%)
Заголовок : AVO Штейн
Язык : Russian
Default : Нет
Forced : Нет
Аудио #5
Идентификатор : 6
Формат : DTS
Формат/Информация : Digital Theater Systems
Профиль формата : MA / Core
Режим : 16
Параметр Endianness формата : Big
Идентификатор кодека : A_DTS
Продолжительность : 1 ч. 35 м.
Вид битрейта : Переменный
Битрейт : Неизвестно / 1509 Кбит/сек
Каналы : 2 канала
Расположение каналов : Front: L R
Частота : 48,0 КГц
Битовая глубина : 24 бит
Метод сжатия : Без потерь / Lossy
Заголовок : Original HD 2.0
Язык : English
Default : Нет
Forced : Нет
Аудио #6
Идентификатор : 7
Формат : DTS
Формат/Информация : Digital Theater Systems
Профиль формата : MA / Core
Режим : 16
Параметр Endianness формата : Big
Идентификатор кодека : A_DTS
Продолжительность : 1 ч. 35 м.
Вид битрейта : Переменный
Битрейт : Неизвестно / 768 Кбит/сек
Каналы : 1 канал
Расположение каналов : Front: C
Частота : 48,0 КГц
Битовая глубина : 24 бит
Метод сжатия : Без потерь / Lossy
Заголовок : Original HD 1.0
Язык : English
Default : Нет
Forced : Нет
Текст #1
Идентификатор : 8
Формат : UTF-8
Идентификатор кодека : S_TEXT/UTF8
Идентификатор кодека/Информация : UTF-8 Plain Text
Заголовок : Subs Rus
Язык : Russian
Default : Нет
Forced : Нет
Текст #2
Идентификатор : 9
Формат : UTF-8
Идентификатор кодека : S_TEXT/UTF8
Идентификатор кодека/Информация : UTF-8 Plain Text
Заголовок : Subs Eng
Язык : English
Default : Нет
Forced : Нет

Сравнение с прежним ремуксом

старый / новый

[Профиль] [ЛС]
Кто просматривает тему:

Показать сообщения:    

Текущее время: Сегодня 22:41

Часовой пояс: GMT



Вы не можете начинать темы
Вы не можете отвечать на сообщения
Вы не можете редактировать свои сообщения
Вы не можете удалять свои сообщения
Вы не можете голосовать в опросах
Вы не можете прикреплять файлы к сообщениям
Вы не можете скачивать файлы