Адуна: Жизнь - мир / Adouna: La vie, le monde (Оливье Ланглуа / Olivier Langlois) [2010, Франция, приключенческий триллер, DVB -> DVD] Original (Fre) + Sub (Rus, Eng, Fre, Deu)

 
Автор Сообщение

TorrentFilm ®

Пол:

Стаж: 2 года

Сообщений: 7741



Награды: Нет

Торрент-статистика

Создавать темы 29-Сен-2015 00:02

[Цитировать]

"Адуна": Жизнь - мир
Adouna: La vie, le monde- Страна: Франция
Жанр: приключенческий триллер
Год выпуска: 2010
Продолжительность: 01:31:26Перевод: Субтитры (перевод Éclair Group)
Cубтитры: русские, английские, французские, немецкие, нидерландские, румынские
Оригинальная аудиодорожка: французский
Режиссер: Оливье Ланглуа / Olivier Langlois
В ролях: Патрик Каталифо / Patrick Catalifo (David), Умар Диау / Oumar Diaw (Bass), Суфиан Герраб / Soufiane Guerrab (Malik), Мириам Белла / Myriam Bella (Nadia), Марго Дюфрен / Margot Dufrene (Aurore), Бенжамен Бакле / Benjamin Baclet (Eliot)
Описание: Пятеро молодых французских подростков - правонарушителей отправляются на общественные работы в Сенегал под присмотром педагога, призванного перевоспитать их, приучив работать в команде. Они должны починить старый траулер, на котором после отправятся по морю до Дакара. Однако, спокойному путешествию по морю не суждено сбыться – они попадают в плен к контрабандистам. Столкнувшись со смертью, ребята открывают новые черты своего характера и понимают, что они намного лучше, чем сами о себе думали.
Доп. информация: Hot Bird (13.0°E) TV5MONDE Europe DVB-S
Награда: приз за лучшую музыку Festival de la fiction TV de La Rochelle 2010.

Качество видео: DVB
Формат видео: DVD Video
Видео: MPEG Video 2, 720x576@1024x576 (16:9), 25 fps, ~3217 kbps avg, 0.310 bit/pixel
Аудио: MPEG Audio 2, 2 ch, 48 kHz, 192.00 kbps - французский
Формат субтитров: prerendered (IDX+SUB)

MediaInfo

Title: [apreder]Adouna_La_vie_le_monde(2010)DVBSize: 2.22 Gb ( 2 325 322,00 KBytes ) - DVD-5Enabled regions: 1, 2, 3, 4, 5, 6, 7, 8
VTS_01 : Play Length: 01:31:26 Video: PAL 16:9 (720x576) VBR, Auto Letterboxed Audio: Francais (MPEG1, 2 ch) Subtitles: Russian English Francais Deutsch Nederlands Romanian
ОбщееПолное имя : F:\My Torrents 3\[apreder]Adouna_La_vie_le_monde(2010)DVB\VIDEO_TS\VTS_01_1.VOBФормат : MPEG-PSРазмер файла : 1024 МбайтПродолжительность : 41 м.Режим общего битрейта : ПеременныйОбщий поток : 3479 Кбит/сек
ВидеоИдентификатор : 224 (0xE0)Формат : MPEG VideoВерсия формата : Version 2Профиль формата : Main@MainПараметр BVOP формата : ДаПараметр матрицы формата : ВыборочнаяПараметр GOP формата : VariableFormat_Settings_PictureStructure : FrameПродолжительность : 41 м.Вид битрейта : ПеременныйБитрейт : 3217 Кбит/секШирина : 720 пикселейВысота : 576 пикселейСоотношение сторон : 16:9Частота кадров : 25,000 кадров/секСтандарт вещания : PALЦветовое пространство : YUVСубдискретизация насыщенности : 4:2:0Битовая глубина : 8 битТип развёртки : ЧересстрочнаяПорядок развёртки : Верхнее поле первоеМетод сжатия : С потерямиБит/(Пиксели*Кадры) : 0.310Временной код первого кадра : 00:00:00:00Оригинал временного кода : Group of pictures headerРазмер потока : 947 Мбайт (92%)
АудиоИдентификатор : 192 (0xC0)Формат : MPEG AudioВерсия формата : Version 1Профиль формата : Layer 2Режим : Joint stereoРасширение режима : Intensity Stereo + MS StereoПродолжительность : 41 м.Вид битрейта : ПостоянныйБитрейт : 192 Кбит/секКаналы : 2 каналаЧастота : 48,0 КГцМетод сжатия : С потерямиРазмер потока : 56,5 Мбайт (6%)
Текст #1Идентификатор : 189 (0xBD)-32 (0x20)Формат : RLEФормат/Информация : Run-length encodingРежим смешивания : DVD-Video
Текст #2Идентификатор : 189 (0xBD)-33 (0x21)Формат : RLEФормат/Информация : Run-length encodingРежим смешивания : DVD-Video
Текст #3Идентификатор : 189 (0xBD)-35 (0x23)Формат : RLEФормат/Информация : Run-length encodingРежим смешивания : DVD-Video
Текст #4Идентификатор : 189 (0xBD)-36 (0x24)Формат : RLEФормат/Информация : Run-length encodingРежим смешивания : DVD-Video
Текст #5Идентификатор : 189 (0xBD)-37 (0x25)Формат : RLEФормат/Информация : Run-length encodingРежим смешивания : DVD-Video

Скриншот c названием фильма

Скриншоты


Резервные скриншоты


- [692]
[Профиль] [ЛС]

Создавать темы 12-Июн-2016 07:53 (спустя 8 месяцев 13 дней)

Топик был перенесен из форума Фильмы 2011 года в форум Фильмы 2010 года
Russian Mafia
 
Кто просматривает тему:

Показать сообщения:    

Текущее время: Сегодня 00:37

Часовой пояс: GMT



Вы не можете начинать темы
Вы не можете отвечать на сообщения
Вы не можете редактировать свои сообщения
Вы не можете удалять свои сообщения
Вы не можете голосовать в опросах
Вы не можете прикреплять файлы к сообщениям
Вы не можете скачивать файлы