Адская кухня / The Kitchen (2019) BDRip 1080p | Sub

 
Author Message

TorrentFilm ®

Gender:

Longevity: 4 years 11 months

Posts: 7770



: None

Торрент-статистика

Post 29-Oct-2019 23:22

[Quote]

Информация о фильме
Название: Адская кухня
Оригинальное название: The Kitchen
Год выхода: 2019
Жанр: Боевик, драма, криминал
Режиссер: Андреа Берлофф
В ролях: Мелисса Маккарти, Тиффани Хэддиш, Элизабет Мосс, Донал Глисон, Джеймс Бэдж Дэйл, Брайан Д'Арси Джеймс, Джереми Бобб, Марго Мартиндейл, Билл Кэмп, Коммон, Э.Дж. Бонилья, Мик Вотфорд, Уэйн Дювалл, Памела Данлэп, Джон Шэриан
О фильме:
История трёх домохозяек, проживающих в нью-йоркском районе «Адская кухня», чьих мужей-мафиози ФБР посадило в тюрьму. Дело происходит в 1978 году, у этих дам нет ничего, кроме желания добиться своего, взяв дела ирландской мафии в свои руки. Оказывается, что и тут они чувствуют себя как рыба в воде во всём: от рэкета до устранения конкурентов… в буквальном смысле.

Страна: США
Студия: BRON Studios, Creative Wealth Media Finance, DC Vertigo
Продолжительность: 01:42:38
Перевод: СУБТИТРЫ
Файл
Кодек: x.264
Качество: BDRip 1080p | Sub | The.Kitchen.2019.1080p.BluRay.x264-DRONES
Видео: MPEG-4 AVC, 9163 Kбит/с, 1920x800, 23.976 кадр/с
Звук: ► Без Рекламы!
Аудио #1: Английский (DTS, 6 ch, 1509 Кбит/с, 48.0 KHz)
Субтитры: Русские (полные, переведено Е. Лисицина), английские
Трейлер

MediaInfo

Источник: The.Kitchen.2019.1080p.BluRay.x264-DRONES
General
Unique ID : 247924476169234068195420841359213795732 (0xBA84846B282B8C77A685DDE580671994)
Complete name : The.Kitchen.2019.BDRip.1080p.Sub.Rus.mkv
Format : Matroska
Format version : Version 4
File size : 7.65 GiB
Duration : 1 h 42 min
Overall bit rate : 10.7 Mb/s
Encoded date : UTC 2019-10-23 09:51:28
Writing application : mkvmerge v7.1.0 ('Good Love') 64bit built on Jul 27 2014 13:06:55
Writing library : libebml v1.3.0 + libmatroska v1.4.1
Video
ID : 1
Format : AVC
Format/Info : Advanced Video Codec
Format profile : High@L4.1
Format settings : CABAC / 5 Ref Frames
Format settings, CABAC : Yes
Format settings, Reference fra : 5 frames
Codec ID : V_MPEG4/ISO/AVC
Duration : 1 h 42 min
Bit rate : 9 163 kb/s
Width : 1 920 pixels
Height : 800 pixels
Display aspect ratio : 2.40:1
Frame rate mode : Constant
Frame rate : 23.976 (24000/1001) FPS
Color space : YUV
Chroma subsampling : 4:2:0
Bit depth : 8 bits
Scan type : Progressive
Bits/(Pixel*Frame) : 0.249
Stream size : 6.57 GiB (86%)
Writing library : x264 core 158 r2984 3759fcb
Encoding settings : cabac=1 / ref=5 / deblock=1:-3:-3 / analyse=0x3:0x113 / me=umh / subme=8 / psy=1 / psy_rd=1.00:0.00 / mixed_ref=1 / me_range=16 / chroma_me=1 / trellis=1 / 8x8dct=1 / cqm=0 / deadzone=21,11 / fast_pskip=1 / chroma_qp_offset=-2 / threads=25 / lookahead_threads=4 / sliced_threads=0 / nr=0 / decimate=1 / interlaced=0 / bluray_compat=0 / constrained_intra=0 / bframes=3 / b_pyramid=2 / b_adapt=1 / b_bias=0 / direct=3 / weightb=1 / open_gop=0 / weightp=2 / keyint=250 / keyint_min=23 / scenecut=40 / intra_refresh=0 / rc_lookahead=50 / rc=2pass / mbtree=1 / bitrate=9163 / ratetol=1.0 / qcomp=0.60 / qpmin=0 / qpmax=69 / qpstep=4 / cplxblur=20.0 / qblur=0.5 / ip_ratio=1.40 / aq=1:1.00
Language : English
Default : Yes
Forced : No
Audio
ID : 2
Format : DTS
Format/Info : Digital Theater Systems
Codec ID : A_DTS
Duration : 1 h 42 min
Bit rate mode : Constant
Bit rate : 1 509 kb/s
Channel(s) : 6 channels
Channel layout : C L R Ls Rs LFE
Sampling rate : 48.0 kHz
Frame rate : 93.750 FPS (512 SPF)
Bit depth : 24 bits
Compression mode : Lossy
Stream size : 1.08 GiB (14%)
Language : English
Default : Yes
Forced : No
Text #1
ID : 3
Format : UTF-8
Codec ID : S_TEXT/UTF8
Codec ID/Info : UTF-8 Plain Text
Duration : 1 h 41 min
Bit rate : 82 b/s
Count of elements : 1461
Stream size : 61.3 KiB (0%)
Language : Russian
Default : Yes
Forced : No
Text #2
ID : 4
Format : UTF-8
Codec ID : S_TEXT/UTF8
Codec ID/Info : UTF-8 Plain Text
Duration : 1 h 36 min
Bit rate : 55 b/s
Count of elements : 1444
Stream size : 39.3 KiB (0%)
Language : English
Default : No
Forced : No
Menu
00:00:00.000 : en:00:00:00.000
00:09:26.274 : en:00:09:26.274
00:17:09.987 : en:00:17:09.987
00:27:10.838 : en:00:27:10.838
00:37:37.755 : en:00:37:37.755
00:44:59.280 : en:00:44:59.280
00:54:26.847 : en:00:54:26.847
01:03:54.706 : en:01:03:54.706
01:12:23.130 : en:01:12:23.130
01:22:20.936 : en:01:22:20.936
01:30:38.558 : en:01:30:38.558
01:37:28.384 : en:01:37:28.384

Скриншоты

[Profile] [PM]
Display posts from previous:    

The time now is: Today 06:32

All times are GMT



You cannot post new topics in this forum
You cannot reply to topics in this forum
You cannot edit your posts in this forum
You cannot delete your posts in this forum
You cannot vote in polls in this forum
You cannot attach files in this forum
You cannot download files in this forum