Адская команда / Матч-реванш / Чертовы футболисты / Teufelskicker (Гранц Хенман / Granz Henman) [2010, Германия, комедия, семейный, спорт, DVB] Dub

 
Автор Сообщение

TorrentFilm ®

Пол:

Стаж: 2 года

Сообщений: 7741



Награды: Нет

Торрент-статистика

Создавать темы 22-Дек-2014 02:00

[Цитировать]

Адская команда / Матч-реванш / Чертовы футболисты / Teufelskicker Страна: Германия
Жанр: комедия, семейный, спорт
Год выпуска: 2010
Продолжительность: 01:36:53
Перевод: Профессиональный (дублированный)
Cубтитры: нет
Режиссер: Гранц Хенман / Granz Henman
В ролях: Диана Амфт, Бенно Фюрман, Рейнер Шёне, Армин Роде, Катрин Х. Флемминг, Генри Хорн, Козима Хенман, Дарио Флик, Марвин Шлэттер, Каан Айдогду
Описание: Юный Мориц влюблен в футбол и играет в команде, которую тренирует его отец. Но после размолвки родителей мальчик вместе с мамой переезжает жить в городок к дедушке. Столкнувшись в местном футбольном клубе со своим злейшим врагом и соперником по турниру Марком, Мориц решает собрать свою футбольную команду. Ведь новые школьные знакомые Морица: братья Мехмет и Энеш, Нико, сестра Марка Катрина и загадочный Алекс, увлекающийся со своими приятелями паркуром, — так же страстно любят футбол, как и Мориц.
Все раздачи Teufelskicker
Сэмпл: http://rusfolder.com/42482159

Качество видео: DVB
Формат видео: TS
Видео: AVC/H.264, 720x576 (4:3), 25 fps, 2673kbps
Аудио: русский, Mp-2, 48 kHz, 2 ch, 192 kbps

MediaInfo

Общее
Идентификатор : 1 (0x1)
Полное имя : D:\Teufelskicker.ts
Формат : MPEG-TS
Размер файла : 2,04 Гбайт
Продолжительность : 1 ч. 36 м.
Режим общего битрейта : Переменный
Общий поток : 3016 Кбит/сек
Видео
Идентификатор : 1081 (0x439)
Идентификатор меню : 1 (0x1)
Формат : AVC
Формат/Информация : Advanced Video Codec
Профиль формата : Main@L3.0
Параметр CABAC формата : Да
Параметр ReFrames формата : 3 кадра
Параметр GOP формата : M=4, N=28
Идентификатор кодека : 27
Продолжительность : 1 ч. 36 м.
Битрейт : 2673 Кбит/сек
Ширина : 720 пикселей
Высота : 576 пикселей
Соотношение сторон : 4:3
Частота кадров : 25,000 кадров/сек
Стандарт вещания : Component
Цветовое пространство : YUV
Субдискретизация насыщенности : 4:2:0
Битовая глубина : 8 бит
Тип развёртки : Чересстрочная
Порядок развёртки : Верхнее поле первое
Бит/(Пиксели*Кадры) : 0.258
Размер потока : 1,81 Гбайт (89%)
Основные цвета : BT.601 PAL
Характеристики трансфера : BT.470 System B, BT.470 System G
Коэффициенты матрицы : BT.601
Аудио
Идентификатор : 1082 (0x43A)
Идентификатор меню : 1 (0x1)
Формат : MPEG Audio
Версия формата : Version 1
Профиль формата : Layer 2
Идентификатор кодека : 3
Продолжительность : 1 ч. 36 м.
Вид битрейта : Постоянный
Битрейт : 192 Кбит/сек
Каналы : 2 канала
Частота : 48,0 КГц
Метод сжатия : С потерями
Размер потока : 133 Мбайт (6%)
Язык : Russian

Скриншот c названием фильма

Скриншоты

[Профиль] [ЛС]

Создавать темы 06-Авг-2015 22:53 (спустя 7 месяцев 15 дней)

Топик был перенесен из форума Фильмы до 2014 года в форум Фильмы до 2012 года
sergej644
 

Создавать темы 12-Июн-2016 07:54 (спустя 1 год 5 месяцев)

Топик был перенесен из форума Фильмы 2011 года в форум Фильмы 2010 года
Russian Mafia
 
Показать сообщения:    

Текущее время: Сегодня 12:51

Часовой пояс: GMT



Вы не можете начинать темы
Вы не можете отвечать на сообщения
Вы не можете редактировать свои сообщения
Вы не можете удалять свои сообщения
Вы не можете голосовать в опросах
Вы не можете прикреплять файлы к сообщениям
Вы не можете скачивать файлы