Адреналин / Crank (Марк Невелдайн / Mark Neveldine, Брайан Тэйлор / Brian Taylor) [2006, США, боевик, триллер, криминал, BDRip-AVC] [Режиссерская / Расширенная версия / Director\'s / Extended Cut] Dub + DVO (Гланц) + VO (Чадов) + Original (eng)

 
Автор Сообщение

reversefile ®

Пол:

Стаж: 4 года 5 месяцев

Сообщений: 842

Откуда: ReverseFile.org



Награды: Нет

Торрент-статистика

Создавать темы 13-Авг-2014 10:03

[Цитировать]

Адреналин / Crank
Расширенная версия / Extended Cut
- Страна: США
Жанр: боевик, триллер, криминал
Год выпуска: 2006
Продолжительность: 01:34:10
Перевод: Профессиональный (полное дублирование) со вставками dvo на расширенные сцены
Профессиональный (двухголосый, Гланц и Королева)
Одноголосый закадровый (Чадов) присутствует ненормативная лексика
Оригинал (англ)
Cубтитры: rus (full+forced), eng
Навигация по главам: есть
Режиссер: Марк Невелдайн / Mark Neveldine, Брайан Тейлор / Brian Taylor
В ролях: Джейсон Стэтхэм, Эми Смарт, Эфрен Рамирез, Jose Pablo Cantillo, Дуайт Йокем, Карлос Санс, Рено Уилсон, Edi Gathegi, Гленн Хоуертон, Кион Янг, Валери Рэй Миллер, Laurent Schwaar, Дэвид Браун, Дориан Кинги, Дэниэл Стивенс, Уолли Лозаньо, Дэвид Т. Грин, Аллен Блумфилд, Стефани Мейс
Описание: Наемный убийца Чев Челиос узнает, что недоброжелатели отравили его редким китайским ядом и отрава начнет действовать немедленно, как только пульс перестанет биться ниже определенной отметки. И теперь Чеву нужно успеть сделать все свои дела, попробовать раздобыть противоядие и отомстить своим отравителям в прямом смысле слова впопыхах - стараясь создавать вокруг себя как можно более напряженную обстановку и не расслабляться ни на секунду.
IMDB 7.0/10
семпл
Качество видео: BDRip-AVC
Формат видео: MKV
Формат аудио: AC3
Видео: 1142*618 (1.85), 23.976 fps, x264, 4490 kbit/s
Аудио 1: AC3, 48 khz, 6 ch, 448 kbit/s rus dub
Аудио 2: AC3, 48 khz, 6 ch, 448 kbit/s rus dvo отдельно
Аудио 3: AC3, 48 khz, 6 ch, 448 kbit/s rus vo отдельно
Аудио 4: AC3, 48 khz, 6 ch, 448 kbit/s eng отдельно

log x264

x264 [info]: profile High, level 4.0
x264 [info]: cabac=1 ref=11 deblock=1:-2:-1 analyse=0x3:0x133 me=umh subme=11 psy=1 fade_compensate=0.00 psy_rd=1.10:0.10 mixed_ref=1 me_range=32 chroma_me=1 trellis=2 8x8dct=1 cqm=0 deadzone=21,11 fast_pskip=0 chroma_qp_offset=-3 threads=10 lookahead_threads=2 sliced_threads=0 nr=0 decimate=1 interlaced=0 bluray_compat=0 constrained_intra=0 fgo=0 bframes=16 b_pyramid=2 b_adapt=2 b_bias=0 direct=3 weightb=1 open_gop=0 weightp=2 keyint=250 keyint_min=23 scenecut=40 intra_refresh=0 rc=crf mbtree=0 crf=19.0000 qcomp=0.60 qpmin=0 qpmax=69 qpstep=4 ip_ratio=1.40 pb_ratio=1.20 aq=1:1.10
x264 [info]: frame I:918 Avg QP:16.60 size: 98740
x264 [info]: frame P:37146 Avg QP:18.67 size: 38375
x264 [info]: frame B:97415 Avg QP:20.21 size: 16995
x264 [info]: consecutive B-frames: 5.9% 6.1% 9.8% 32.8% 13.3% 24.9% 2.1% 3.9% 0.3% 0.3% 0.1% 0.3% 0.0% 0.0% 0.0% 0.0% 0.0%
x264 [info]: mb I I16..4: 9.1% 73.6% 17.3%
x264 [info]: mb P I16..4: 1.1% 19.3% 2.8% P16..4: 27.2% 34.2% 11.0% 2.1% 0.2% skip: 2.1%
x264 [info]: mb B I16..4: 0.1% 2.8% 0.4% B16..8: 37.3% 24.1% 4.2% direct: 6.6% skip:24.5% L0:42.6% L1:46.1% BI:11.3%
x264 [info]: 8x8 transform intra:83.3% inter:58.1%
x264 [info]: direct mvs spatial:100.0% temporal:0.0%
x264 [info]: coded y,uvDC,uvAC intra: 93.2% 83.2% 56.5% inter: 32.5% 25.0% 2.9%
x264 [info]: i16 v,h,dc,p: 18% 16% 6% 59%
x264 [info]: i8 v,h,dc,ddl,ddr,vr,hd,vl,hu: 7% 10% 9% 10% 13% 12% 14% 11% 15%
x264 [info]: i4 v,h,dc,ddl,ddr,vr,hd,vl,hu: 10% 12% 3% 9% 14% 13% 15% 10% 15%
x264 [info]: i8c dc,h,v,p: 35% 30% 18% 16%
x264 [info]: Weighted P-Frames: Y:16.3% UV:13.1%
x264 [info]: ref P L0: 48.0% 9.7% 17.2% 6.6% 4.9% 3.7% 3.1% 1.8% 1.6% 1.5% 1.4% 0.4% 0.1%
x264 [info]: ref B L0: 75.9% 10.4% 5.0% 2.5% 1.9% 1.5% 1.2% 0.8% 0.5% 0.3%
x264 [info]: ref B L1: 93.5% 6.5%
x264 [info]: kb/s:4490.38

MI

Общее
Уникальный идентификатор : 177746886136107507856949713736462470747 (0x85B8CE17F5F2ABB9B49B94CF34678E5B)
Полное имя : Аdrеnаlin.2006.BDRip.x264.ac3.[torrentfilm.net].mkv
Формат : Matroska
Версия формата : Version 4 / Version 2
Размер файла : 3,25 Гбайт
Продолжительность : 1 ч. 34 м.
Общий поток : 4942 Кбит/сек
Дата кодирования : UTC 2014-07-24 15:37:56
Программа кодирования : mkvmerge v6.5.0 ('Isn't she lovely') built on Oct 20 2013 12:50:05
Библиотека кодирования : libebml v1.3.0 + libmatroska v1.4.1
Обложка : Yes
Видео
Идентификатор : 1
Формат : AVC
Формат/Информация : Advanced Video Codec
Профиль формата : High@L4.0
Параметр CABAC формата : Да
Параметр ReFrames формата : 11 кадров
Идентификатор кодека : V_MPEG4/ISO/AVC
Продолжительность : 1 ч. 34 м.
Битрейт : 4396 Кбит/сек
Ширина : 1142 пикселя
Высота : 618 пикселей
Соотношение сторон : 1,85:1
Режим частоты кадров : Постоянный
Частота кадров : 23,976 кадра/сек
Цветовое пространство : YUV
Субдискретизация насыщенности : 4:2:0
Битовая глубина : 8 бит
Тип развёртки : Прогрессивная
Бит/(Пиксели*Кадры) : 0.260
Размер потока : 2,89 Гбайт (89%)
Библиотека кодирования : x264 core 142 r2453kMod ea0ca51
Настройки программы : cabac=1 / ref=11 / deblock=1:-2:-1 / analyse=0x3:0x133 / me=umh / subme=11 / psy=1 / fade_compensate=0.00 / psy_rd=1.10:0.10 / mixed_ref=1 / me_range=32 / chroma_me=1 / trellis=2 / 8x8dct=1 / cqm=0 / deadzone=21,11 / fast_pskip=0 / chroma_qp_offset=-3 / threads=10 / lookahead_threads=2 / sliced_threads=0 / nr=0 / decimate=1 / interlaced=0 / bluray_compat=0 / constrained_intra=0 / fgo=0 / bframes=16 / b_pyramid=2 / b_adapt=2 / b_bias=0 / direct=3 / weightb=1 / open_gop=0 / weightp=2 / keyint=250 / keyint_min=23 / scenecut=40 / intra_refresh=0 / rc=crf / mbtree=0 / crf=19.0000 / qcomp=0.60 / qpmin=0 / qpmax=69 / qpstep=4 / ip_ratio=1.40 / pb_ratio=1.20 / aq=1:1.10
Язык : English
Default : Да
Forced : Нет
Коэффициенты матрицы : BT.709
Аудио
Идентификатор : 2
Формат : AC-3
Формат/Информация : Audio Coding 3
Расширение режима : CM (complete main)
Параметр Endianness формата : Big
Идентификатор кодека : A_AC3
Продолжительность : 1 ч. 34 м.
Вид битрейта : Постоянный
Битрейт : 448 Кбит/сек
Каналы : 6 каналов
Расположение каналов : Front: L C R, Side: L R, LFE
Частота : 48,0 КГц
Битовая глубина : 16 бит
Метод сжатия : С потерями
Размер потока : 302 Мбайт (9%)
Заголовок : dub
Язык : Russian
Default : Да
Forced : Нет
Текст #1
Идентификатор : 3
Формат : UTF-8
Идентификатор кодека : S_TEXT/UTF8
Идентификатор кодека/Информация : UTF-8 Plain Text
Заголовок : forced
Язык : Russian
Default : Да
Forced : Нет
Текст #2
Идентификатор : 4
Формат : UTF-8
Идентификатор кодека : S_TEXT/UTF8
Идентификатор кодека/Информация : UTF-8 Plain Text
Заголовок : full
Язык : Russian
Default : Нет
Forced : Нет
Текст #3
Идентификатор : 5
Формат : UTF-8
Идентификатор кодека : S_TEXT/UTF8
Идентификатор кодека/Информация : UTF-8 Plain Text
Язык : English
Default : Нет
Forced : Нет
Меню
00:00:00.000 : en:00:00:00.000
00:04:45.702 : en:00:04:45.702
...
01:19:50.744 : en:01:19:50.744
--
[Профиль] [ЛС]

Создавать темы 06-Авг-2015 23:18 (спустя 11 месяцев 24 дня)

Топик был перенесен из форума Фильмы до 2014 года в форум Фильмы до 2012 года
sergej644
 
Показать сообщения:    

Текущее время: Сегодня 11:50

Часовой пояс: GMT



Вы не можете начинать темы
Вы не можете отвечать на сообщения
Вы не можете редактировать свои сообщения
Вы не можете удалять свои сообщения
Вы не можете голосовать в опросах
Вы не можете прикреплять файлы к сообщениям
Вы не можете скачивать файлы