Адлерский институт приматологии (RTGHD) [2013, Документальный, HDTV 1080i]

 
Автор Сообщение

TorrentFilm ®

Пол:

Стаж: 2 года

Сообщений: 7741



Награды: Нет

Торрент-статистика

Создавать темы 29-Янв-2015 00:00

[Цитировать]

Адлерский институт приматологии
Год выпуска: 2013
Страна: Россия
Жанр: Документальный
Продолжительность: 00:25:14
Перевод: Не требуется
Описание: Обезьяны помогли людям покорить космос, найти лекарства от страшных болезней. Они биологически принадлежат к тому же отряду, что и человек. Поэтому их изучение дает людям бесценную информацию. В сорока километрах от южного города Адлер, в селе Веселое, расположен Научно-исследовательский институт медицинской приматологии Российской академии медицинских наук. В вольерах живут 4 200 обезьян: лапундеры, резусы, яванские и бурые макаки, зеленые мартышки, павианы, гамадрилы. Всего 20 видов. Такого разнообразия приматов не встретишь даже в зоопарке. Но здесь обезьяны совсем с другой целью. Они помогают человеку изучать окружающий мир.
Доп. информация: IPTV Remux (запись потока без перекодирования).
27.01.2015 - обновление раздачи! Вместо записи с TorrentStream (битрейт 5 мбит) - теперь на раздаче исходник с IPTV (~8.5 мбит).
Тип релиза: HDTV 1080i
Контейнер: TS
Видео: AVC H.264, 1920x1080i (16:9), 25 fps, 8190 kbps, 0.158 bits/pixel
Аудио: MPEG Audio, 2 channels, 192 kbps, 48KHz

MediaInfo

GeneralID : 1 (0x1)Complete name : Адлерский институт приматологии.tsFormat : MPEG-TSFile size : 1.56 GiBDuration : 25mn 14sOverall bit rate mode : VariableOverall bit rate : 8 820 Kbps
VideoID : 601 (0x259)Menu ID : 1 (0x1)Format : AVCFormat/Info : Advanced Video CodecFormat profile : Main@L4.0Format settings, CABAC : YesFormat settings, ReFrames : 3 framesCodec ID : 27Duration : 25mn 14sBit rate : 8 190 KbpsWidth : 1 920 pixelsHeight : 1 080 pixelsDisplay aspect ratio : 16:9Frame rate : 25.000 fpsStandard : ComponentColor space : YUVChroma subsampling : 4:2:0Bit depth : 8 bitsScan type : InterlacedScan order : Top Field FirstBits/(Pixel*Frame) : 0.158Stream size : 1.44 GiB (93%)Color primaries : BT.709Transfer characteristics : BT.709Matrix coefficients : BT.709
AudioID : 602 (0x25A)Menu ID : 1 (0x1)Format : MPEG AudioFormat version : Version 1Format profile : Layer 2Codec ID : 3Duration : 25mn 14sBit rate mode : ConstantBit rate : 192 KbpsChannel(s) : 2 channelsSampling rate : 48.0 KHzCompression mode : LossyStream size : 34.7 MiB (2%)Language : Russian

Скриншоты

[Профиль] [ЛС]
Показать сообщения:    

Текущее время: Сегодня 22:24

Часовой пояс: GMT



Вы не можете начинать темы
Вы не можете отвечать на сообщения
Вы не можете редактировать свои сообщения
Вы не можете удалять свои сообщения
Вы не можете голосовать в опросах
Вы не можете прикреплять файлы к сообщениям
Вы не можете скачивать файлы