Аддеролловые дневники / The Adderall Diaries (2015) BDRemux 1080p от ExKinoRay | iTunes

 
Автор Сообщение

Russian Mafia ®

Пол:

Стаж: 1 год 8 месяцев

Сообщений: 4255



Награды: 10 (Подробнее)

Top Releaser 4 (Количество: 1) Mega Seeder 2 (Количество: 1) Mega Seeder 1 (Количество: 1)
Торрент-статистика

Создавать темы 15-Сен-2016 10:00

[Цитировать]

Информация о фильме
Название: Аддеролловые дневники
Оригинальное название: The Adderall Diaries
Год выхода: 2015
Жанр: Боевик, триллер, драма
Режиссер: Памела Романовски
В ролях: Эмбер Хёрд, Джеймс Франко, Кристиан Слэйтер, Уилмер Вальдеррама, Эд Харрис, Синтия Никсон, Джим Пэррак, Тимоти Чаламет, Тоня Гланц, Дэн Флаэрти
О фильме:
Странное судебное разбирательство по делу об убийстве самое малое, что случилось с загнанным в угол прошлым успехом, застоем, злоупотреблением алкоголем, проблемами во взаимоотношениях и комплексом отца писателем Стивеном Эллиотом. Не далее как в 2007 году на судебном разбирательстве по делу программиста Ханса Райзера, обвиняемого в убийстве своей жены, товарищ ответчика Шон Стёрджон косвенно, избегая уточнений, сознался в нескольких убийствах (но все же исключая убийство жены Райзера). Эллиот, «взятый» на основании отснятого фильма и несущественной связи со Стёрджоном (они состояли в БДСМ-сообществе), создаёт эксцентричную запись судебной процедуры.

Страна: США
Студия: RabbitBandini Productions
Продолжительность: 01:26:47
Перевод: Дублированный | iTunes
Файл
Кодек: MPEG-4
Качество: BDRemux 1080p
Видео: 1920x1080, 21.9 Mbit/s, 23.976 fps
Звук:
Аудио #01: 48 kHz, AC3, 5.1, 384 Kbps | Дублированный, iTunes |
Аудио #02: 48 kHz, DTS-HD MA, 5.1, 3477 kbps | Оригинал |
Субтитры: Русские, английские

MI

Общее
Уникальный идентификатор : 230200561252797744488412512101022621030 (0xAD2F03F21DC4019283867960F3A0DD66)
Полное имя : G:VideoThe.Adderall.Diaries.2015.BDREMUX.1080p.ExKinoRay.mkv
Формат : Matroska
Версия формата : Version 4 / Version 2
Размер файла : 15,7 Гбайт
Продолжительность : 1 ч. 27 м.
Режим общего битрейта : Переменный
Общий поток : 25,8 Мбит/сек
Название фильма : build by ***селезень***
Дата кодирования : UTC 2016-09-15 08:43:16
Программа кодирования : mkvmerge v8.3.0 ('Over the Horizon') 64bit
Библиотека кодирования : libebml v1.3.1 + libmatroska v1.4.2
Видео
Идентификатор : 1
Формат : AVC
Формат/Информация : Advanced Video Codec
Профиль формата : High@L4.1
Параметр CABAC формата : Да
Параметр ReFrames формата : 4 кадра
Идентификатор кодека : V_MPEG4/ISO/AVC
Продолжительность : 1 ч. 27 м.
Вид битрейта : Переменный
Битрейт : 21,9 Мбит/сек
Максимальный битрейт : 37,0 Мбит/сек
Ширина : 1920 пикселей
Высота : 1080 пикселей
Соотношение сторон : 16:9
Режим частоты кадров : Постоянный
Частота кадров : 23,976 (24000/1001) кадра/сек
Цветовое пространство : YUV
Субдискретизация насыщенности : 4:2:0
Битовая глубина : 8 бит
Тип развёртки : Прогрессивная
Бит/(Пиксели*Кадры) : 0.441
Размер потока : 13,3 Гбайт (85%)
Заголовок : build by ***селезень***
Язык : Hungarian
Default : Да
Forced : Нет
Аудио #1
Идентификатор : 2
Формат : AC-3
Формат/Информация : Audio Coding 3
Расширение режима : CM (complete main)
Параметр Endianness формата : Big
Идентификатор кодека : A_AC3
Продолжительность : 1 ч. 26 м.
Вид битрейта : Постоянный
Битрейт : 384 Кбит/сек
Каналы : 6 каналов
Расположение каналов : Front: L C R, Side: L R, LFE
Частота : 48,0 КГц
Частота кадров : 31,250 кадров/сек (1536 spf)
Метод сжатия : С потерями
Размер потока : 239 Мбайт (1%)
Заголовок : iTunes
Язык : Russian
Default : Да
Forced : Нет
Аудио #2
Идентификатор : 3
Формат : DTS
Формат/Информация : Digital Theater Systems
Профиль формата : MA / Core
Режим : 16
Параметр Endianness формата : Big
Идентификатор кодека : A_DTS
Продолжительность : 1 ч. 27 м.
Вид битрейта : Переменный / Постоянный
Битрейт : 3477 Кбит/сек / 1509 Кбит/сек
Каналы : 6 каналов
Расположение каналов : Front: L C R, Side: L R, LFE
Частота : 48,0 КГц
Частота кадров : 93,750 кадра/сек (512 spf)
Битовая глубина : 24 бит
Метод сжатия : Без потерь / Lossy
Размер потока : 2,11 Гбайт (13%)
Заголовок : Original
Язык : English
Default : Нет
Forced : Нет
Текст #1
Идентификатор : 4
Формат : UTF-8
Идентификатор кодека : S_TEXT/UTF8
Идентификатор кодека/Информация : UTF-8 Plain Text
Продолжительность : 1 ч. 19 м.
Битрейт : 119 бит/сек
Count of elements : 1201
Размер потока : 69,7 Кбайт (0%)
Заголовок : Full
Язык : Russian
Default : Нет
Forced : Нет
Текст #2
Идентификатор : 5
Формат : UTF-8
Идентификатор кодека : S_TEXT/UTF8
Идентификатор кодека/Информация : UTF-8 Plain Text
Продолжительность : 1 ч. 19 м.
Битрейт : 63 бит/сек
Count of elements : 1046
Размер потока : 36,6 Кбайт (0%)
Заголовок : Full
Язык : English
Default : Нет
Forced : Нет
Текст #3
Идентификатор : 6
Формат : UTF-8
Идентификатор кодека : S_TEXT/UTF8
Идентификатор кодека/Информация : UTF-8 Plain Text
Продолжительность : 1 ч. 25 м.
Битрейт : 63 бит/сек
Count of elements : 1184
Размер потока : 40,1 Кбайт (0%)
Заголовок : SDH
Язык : English
Default : Нет
Forced : Нет
Меню
00:00:00.000 : en:Chapter 1
00:03:38.093 : en:Chapter 2
00:10:39.848 : en:Chapter 3
00:16:22.607 : en:Chapter 4
00:20:18.676 : en:Chapter 5
00:28:44.514 : en:Chapter 6
00:33:07.068 : en:Chapter 7
00:38:40.443 : en:Chapter 8
00:43:29.273 : en:Chapter 9
00:51:16.990 : en:Chapter 10
00:54:33.979 : en:Chapter 11
00:59:51.588 : en:Chapter 12
01:06:14.595 : en:Chapter 13
01:11:39.086 : en:Chapter 14
01:16:01.724 : en:Chapter 15
01:19:02.780 : en:Chapter 16

Скриншоты

Релиз от: Автор релиза:
[Профиль] [ЛС]
Показать сообщения:    

Текущее время: Сегодня 18:14

Часовой пояс: GMT



Вы не можете начинать темы
Вы не можете отвечать на сообщения
Вы не можете редактировать свои сообщения
Вы не можете удалять свои сообщения
Вы не можете голосовать в опросах
Вы не можете прикреплять файлы к сообщениям
Вы не можете скачивать файлы