Агротуризм на юге России (RTGHD) [2013, Документальный, HDTV 1080i]

 
Автор Сообщение

TorrentFilm ®

Пол:

Стаж: 2 года 5 месяцев

Сообщений: 7773



Награды: Нет

Торрент-статистика

Создавать темы 30-Янв-2015 00:00

[Цитировать]

Агротуризм на юге России
Год выпуска: 2013
Страна: Россия
Жанр: Документальный
Продолжительность: 00:23:17
Перевод: Не требуется
Описание: Адлер - единственное место в России, где в изобилии растут тропические плоды. Сады хурмовых деревьев спускаются террасами с гор. Плантации древовидных лиан-киви расположены у самой береговой линии. А еще в этих краях выращивают гранаты, инжир, мандарины, лимоны, фейхуа... Плодов столько, что прилавки местного рынка выглядят настоящей палитрой художника. Ведущая Надежда Лебедева совершила путешествие по фруктовому раю, где зреют плоды со всего мира.
Доп. информация: IPTV Remux (запись потока без перекодирования).
Тип релиза: HDTV 1080i
Контейнер: TS
Видео: AVC H.264, 1920x1080i (16:9), 25 fps, 10.0 Mbps, 0.194 bits/pixel
Аудио: MPEG Audio, 2 channels, 192 kbps, 48KHz

MediaInfo

GeneralID : 1 (0x1)Complete name : Агротуризм на юге России.tsFormat : MPEG-TSFile size : 1.75 GiBDuration : 23mn 17sOverall bit rate mode : VariableOverall bit rate : 10.8 Mbps
VideoID : 601 (0x259)Menu ID : 1 (0x1)Format : AVCFormat/Info : Advanced Video CodecFormat profile : Main@L4.0Format settings, CABAC : YesFormat settings, ReFrames : 3 framesCodec ID : 27Duration : 23mn 17sBit rate : 10.0 MbpsWidth : 1 920 pixelsHeight : 1 080 pixelsDisplay aspect ratio : 16:9Frame rate : 25.000 fpsStandard : ComponentColor space : YUVChroma subsampling : 4:2:0Bit depth : 8 bitsScan type : InterlacedScan order : Top Field FirstBits/(Pixel*Frame) : 0.194Stream size : 1.63 GiB (93%)Color primaries : BT.709Transfer characteristics : BT.709Matrix coefficients : BT.709
AudioID : 602 (0x25A)Menu ID : 1 (0x1)Format : MPEG AudioFormat version : Version 1Format profile : Layer 2Codec ID : 3Duration : 23mn 17sBit rate mode : ConstantBit rate : 192 KbpsChannel(s) : 2 channelsSampling rate : 48.0 KHzCompression mode : LossyStream size : 32.0 MiB (2%)Language : Russian

Скриншоты

[Профиль] [ЛС]
Кто просматривает тему:

Показать сообщения:    

Текущее время: Сегодня 02:19

Часовой пояс: GMT



Вы не можете начинать темы
Вы не можете отвечать на сообщения
Вы не можете редактировать свои сообщения
Вы не можете удалять свои сообщения
Вы не можете голосовать в опросах
Вы не можете прикреплять файлы к сообщениям
Вы не можете скачивать файлы