Агент Коди Бэнкс / Agent Cody Banks (2003) BDRip 1080p | D, P, P2

 
Автор Сообщение

Russian Mafia ®

Пол:

Стаж: 1 год 8 месяцев

Сообщений: 4257



Награды: 10 (Подробнее)

Mega Seeder 4 (Количество: 1) За внесенный вклад в развитие сайта (Количество: 1) Mega Seeder 1 (Количество: 1)
Торрент-статистика

Создавать темы 09-Июн-2016 03:10

[Цитировать]

Название: Агент Коди Бэнкс
Оригинальное название: Agent Cody Banks
Год выхода: 2003
Страна: США, Канада
Студия: Metro-Goldwyn-Mayer (MGM), Splendid Pictures, Maverick Films
Продолжительность: 01:42:08
Жанр: боевик, триллер, мелодрама, комедия, криминал, приключения, семейный, ...
Режиссер: Харольд Цварт
В ролях: Фрэнки Муниз, Хилари Дафф, Энджи Хэрмон, Кит Дэвид, Синтия Стивенсон, Арнольд Вослу, Дэниэл Ройбак, Иэн МакШейн, Даррелл Хэммонд, Мартин Донован, ...
Перевод:
- Профессиональный (дублированный) Невафильм
- Профессиональный (многоголосный, закадровый)
- Профессиональный (двуголосый, закадровый)
- Субтитры
О фильме: История о подростке по имени Коди Бэнкс, которого правительство США нанимает в качестве спецагента для выполнения особого задания. Миссия такова, что для ее выполнения нужен еще не вполне взрослый человек, которого можно было бы использовать в течение 10 лет и более…

Кодек: x264
Качество: BDRip 1080p
Видео: 1920x820, 12000 kbps, 23,976 fps
Аудио #1: AC-3, 6 ch, 448 kbps (Rus) - Dub Невафильм
Аудио #2: AC-3, 6 ch, 448 kbps (Rus) - MVO
Аудио #3: AC-3, 6 ch, 448 kbps (Rus) - DVO
Аудио #4: DTS, 6 ch, 1509 kbps (Eng)
Субтитры: Русские, Английские
Спасибо за исходник

MediaInfo

x264 [info]: frame I:1115 Avg QP:18.48 size:244681
x264 [info]: frame P:34617 Avg QP:20.72 size: 97762
x264 [info]: frame B:111197 Avg QP:22.47 size: 49766
x264 [info]: consecutive B-frames: 3.1% 4.1% 11.6% 16.6% 17.6% 41.1% 3.9% 1.0% 0.4% 0.3% 0.1% 0.1% 0.1%
Общее
Уникальный идентификатор : 208438947980048961781263732307306919230 (0x9CCFE192FD5D921CB00C1C5E4F86B53E)
Полное имя : Агент Коди Бэнкс (Agent Cody Banks) 2003 BDRip 1080p.mkv
Формат : Matroska
Версия формата : Version 2
Размер файла : 10,6 Гбайт
Продолжительность : 1 ч. 42 м.
Общий поток : 14,9 Мбит/сек
Дата кодирования : UTC 2016-06-04 13:06:16
Программа кодирования : mkvmerge v4.0.0 ('The Stars were mine') сборка от Jun 6 2010 16:18:42
Библиотека кодирования : libebml v1.0.0 + libmatroska v1.0.0
Видео
Идентификатор : 1
Формат : AVC
Формат/Информация : Advanced Video Codec
Профиль формата : High@L4.1
Параметр CABAC формата : Да
Параметр ReFrames формата : 5 кадров
Идентификатор кодека : V_MPEG4/ISO/AVC
Продолжительность : 1 ч. 42 м.
Битрейт : 12,0 Мбит/сек
Ширина : 1920 пикселей
Высота : 820 пикселей
Соотношение сторон : 2,35:1
Режим частоты кадров : Постоянный
Частота кадров : 23,976 (24000/1001) кадра/сек
Цветовое пространство : YUV
Субдискретизация насыщенности : 4:2:0
Битовая глубина : 8 бит
Тип развёртки : Прогрессивная
Бит/(Пиксели*Кадры) : 0.318
Размер потока : 8,35 Гбайт (79%)
Библиотека кодирования : x264 core 146 r2538 121396c
Настройки программы : cabac=1 / ref=5 / deblock=1:-3:-3 / analyse=0x3:0x133 / me=umh / subme=11 / psy=1 / psy_rd=1.10:0.16 / mixed_ref=1 / me_range=32 / chroma_me=1 / trellis=2 / 8x8dct=1 / cqm=0 / deadzone=21,11 / fast_pskip=0 / chroma_qp_offset=-3 / threads=12 / lookahead_threads=2 / sliced_threads=0 / nr=0 / decimate=0 / interlaced=0 / bluray_compat=0 / constrained_intra=0 / bframes=12 / b_pyramid=2 / b_adapt=2 / b_bias=0 / direct=3 / weightb=1 / open_gop=0 / weightp=2 / keyint=240 / keyint_min=23 / scenecut=40 / intra_refresh=0 / rc_lookahead=60 / rc=2pass / mbtree=0 / bitrate=12000 / ratetol=1.0 / qcomp=0.60 / qpmin=0 / qpmax=69 / qpstep=4 / cplxblur=20.0 / qblur=0.5 / vbv_maxrate=50000 / vbv_bufsize=62500 / nal_hrd=none / filler=0 / ip_ratio=1.40 / pb_ratio=1.30 / aq=1:0.90
Язык : English
Default : Нет
Forced : Нет
Аудио #1
Идентификатор : 2
Формат : AC-3
Формат/Информация : Audio Coding 3
Расширение режима : CM (complete main)
Параметр Endianness формата : Big
Идентификатор кодека : A_AC3
Продолжительность : 1 ч. 42 м.
Вид битрейта : Постоянный
Битрейт : 448 Кбит/сек
Каналы : 6 каналов
Расположение каналов : Front: L C R, Side: L R, LFE
Частота : 48,0 КГц
Частота кадров : 31,250 кадров/сек (1536 spf)
Метод сжатия : С потерями
Размер потока : 327 Мбайт (3%)
Заголовок : Dub Невафильм
Язык : Russian
Default : Нет
Forced : Нет
Аудио #2
Идентификатор : 3
Формат : AC-3
Формат/Информация : Audio Coding 3
Расширение режима : CM (complete main)
Параметр Endianness формата : Big
Идентификатор кодека : A_AC3
Продолжительность : 1 ч. 42 м.
Вид битрейта : Постоянный
Битрейт : 448 Кбит/сек
Каналы : 6 каналов
Расположение каналов : Front: L C R, Side: L R, LFE
Частота : 48,0 КГц
Частота кадров : 31,250 кадров/сек (1536 spf)
Метод сжатия : С потерями
Размер потока : 327 Мбайт (3%)
Заголовок : MVO
Язык : Russian
Default : Нет
Forced : Нет
Аудио #3
Идентификатор : 4
Формат : AC-3
Формат/Информация : Audio Coding 3
Расширение режима : CM (complete main)
Параметр Endianness формата : Big
Идентификатор кодека : A_AC3
Продолжительность : 1 ч. 42 м.
Вид битрейта : Постоянный
Битрейт : 448 Кбит/сек
Каналы : 6 каналов
Расположение каналов : Front: L C R, Side: L R, LFE
Частота : 48,0 КГц
Частота кадров : 31,250 кадров/сек (1536 spf)
Метод сжатия : С потерями
Размер потока : 327 Мбайт (3%)
Заголовок : DVO
Язык : Russian
Default : Нет
Forced : Нет
Аудио #4
Идентификатор : 5
Формат : DTS
Формат/Информация : Digital Theater Systems
Режим : 16
Параметр Endianness формата : Big
Идентификатор кодека : A_DTS
Продолжительность : 1 ч. 42 м.
Вид битрейта : Постоянный
Битрейт : 1509 Кбит/сек
Каналы : 6 каналов
Расположение каналов : Front: L C R, Side: L R, LFE
Частота : 48,0 КГц
Частота кадров : 93,750 кадра/сек (512 spf)
Битовая глубина : 24 бит
Метод сжатия : С потерями
Размер потока : 1,08 Гбайт (10%)
Язык : English
Default : Нет
Forced : Нет
Текст #1
Идентификатор : 6
Формат : UTF-8
Идентификатор кодека : S_TEXT/UTF8
Идентификатор кодека/Информация : UTF-8 Plain Text
Язык : Russian
Default : Нет
Forced : Нет
Текст #2
Идентификатор : 7
Формат : UTF-8
Идентификатор кодека : S_TEXT/UTF8
Идентификатор кодека/Информация : UTF-8 Plain Text
Язык : English
Default : Нет
Forced : Нет

[Профиль] [ЛС]
Кто просматривает тему:

Форум Тема Автор Размер
Программы [IM] Mobile Mail.Ru Agent / Мобильный Агент Mail.Ru v2.2.315 - 4.0.2178 [Android 2.1+, RUS] TorrentFilm 59 MB
Разная литература А. Гришин | Копирайтерское агентство. Как зарабатывать большие деньги чужими руками (2015) [FB2, RTF] достали все 25 MB
Отечественные мультфильмы Агент Г.С. (Владимир Пекарь) [1966, мультфильм для взрослых, SATRip] TorrentFilm 132 MB
Зарубежные сериалы Агент Картер / Agent Carter (Сезон 1-2, Серия 1-18 из 18) (Луис Д'Эспозито, Питер Лето) [2015-2016 , Фантастика, боевик, приключения, криминал, драма , WEB-DLRip-AVC 1080p] [MVO] [LostFilm ,... Враг Нароода 32.66 GB
Зарубежные сериалы Агент Картер / Agent Carter [S01] (2015) BDRip 720p | LostFilm, Jaskier, Невафильм Russian Mafia 23.96 GB
Зарубежные сериалы Агент Картер / Agent Carter [S01] (2015) WEB-DLRip | Невафильм достали все 4.32 GB
Зарубежные сериалы Агент Картер / Agent Carter [S02] (2016) WEB-DL 1080p | LostFilm достали все 17.45 GB
Фильмы (HD DVD, Blu-ray и BDRemux) Агент Коди Бэнкс 2: Пункт назначения - Лондон / Agent Cody Banks 2: Destination London (2004) DVD-9 | D, P, A sergej644 6.46 GB
Показать сообщения:    

Текущее время: Сегодня 10:17

Часовой пояс: GMT



Вы не можете начинать темы
Вы не можете отвечать на сообщения
Вы не можете редактировать свои сообщения
Вы не можете удалять свои сообщения
Вы не можете голосовать в опросах
Вы не можете прикреплять файлы к сообщениям
Вы не можете скачивать файлы