Агент Картер / Agent Carter [S01] (2015) WEB-DLRip | Невафильм

 
Автор Сообщение

достали все ®

Пол:

Стаж: 1 год 8 месяцев

Сообщений: 6558



Награды: 12 (Подробнее)

Top Releaser 2 (Количество: 1) Mega Releaser 1 (Количество: 1) Top Releaser 4 (Количество: 1)
Торрент-статистика

Создавать темы 31-Май-2015 03:40

[Цитировать]

Год выпуска: 2015
Страна: США
Жанр: Боевик, фантастика, драма
Продолжительность: ~ 00:42:00
Перевод: Полное дублирование Невафильм
Режиссёр: Стивен Крегг, Луис Д’Эспозито, Питер Лето
В ролях: Хейли Этвелл, Джеймс Д’Арси, Чад Майкл Мюррэй, Энвер Гьокай, Ши Уигхэм, Линдси Фонсека, Бриджет Риган, Ральф Браун, Меган Фэй, Доминик Купер
Описание: История Пегги Картер. В 1946 году мир нанес Пегги серьезный удар, когда она оказывается в неудобном для нее положении с возвращением домой мужчин со сражений за границей. Работая на секретную организацию СНР (Стратегический Научный Резерв), Пегги должна найти баланс между административной работой и секретными миссиями для Говарда Старка, одновременно пытаясь жить нормальной жизнью одинокой женщины в Америке после утраты любви всей ее жизни — Стива Роджерса.
СЕМПЛ
Качество: WEB-DLRip 400p
Формат: AVI
Видео кодек: XviD
Аудио кодек: MP3
Видео: 1533 Kbps, 720x400 (16:9), 23.976 fps
Аудио: MP3, 48.0 KHz, 2 ch, 128 kbps RU
Аудио 2: MP3, 48.0 KHz, 2 ch, 128 kbps ENG
Субтитры: русские, английские
Дубляж приобретен за счет mrpooph и BS666. Запись звука - xironfs.

MediaInfo

Общее
Полное имя : D:ЗагрузкиAgent.Carter.S01.400pAgent.Carter.S01.E01.400p.avi
Формат : AVI
Формат/Информация : Audio Video Interleave
Размер файла : 550 Мбайт
Продолжительность : 42 м.
Общий поток : 1803 Кбит/сек
Программа кодирования : VirtualDubMod 1.5.10.2 (build 2540/release)
Библиотека кодирования : VirtualDubMod build 2540/release
Видео
Идентификатор : 0
Формат : MPEG-4 Visual
Профиль формата : Advanced Simple@L5
Параметр BVOP формата : 2
Параметр QPel формата : Нет
Параметр GMC формата : Без точки перехода
Параметр матрицы формата : Default (MPEG)
Идентификатор кодека : XVID
Идентификатор кодека/Подсказка : XviD
Продолжительность : 42 м.
Битрейт : 1533 Кбит/сек
Ширина : 720 пикселей
Высота : 400 пикселей
Соотношение сторон : 16:9
Частота кадров : 23,976 кадра/сек
Цветовое пространство : YUV
Субдискретизация насыщенности : 4:2:0
Битовая глубина : 8 бит
Тип развёртки : Прогрессивная
Метод сжатия : С потерями
Бит/(Пиксели*Кадры) : 0.222
Размер потока : 467 Мбайт (85%)
Библиотека кодирования : XviD 73
Аудио #1
Идентификатор : 1
Формат : MPEG Audio
Версия формата : Version 1
Профиль формата : Layer 3
Режим : Joint stereo
Расширение режима : MS Stereo
Идентификатор кодека : 55
Идентификатор кодека/Подсказка : MP3
Продолжительность : 42 м.
Вид битрейта : Постоянный
Битрейт : 128 Кбит/сек
Каналы : 2 канала
Частота : 48,0 КГц
Метод сжатия : С потерями
Размер потока : 39,0 Мбайт (7%)
Выравнивание : Соединение по промежуткам
Продолжительность промежутка : 42 мс. (1,00 видеокадр)
Время предзагрузки промежутка : 504 мс.
Библиотека кодирования : LAME3.99r
Настройки программы : -m j -V 4 -q 3 -lowpass 17 -b 128
Аудио #2
Идентификатор : 2
Формат : MPEG Audio
Версия формата : Version 1
Профиль формата : Layer 3
Режим : Joint stereo
Расширение режима : MS Stereo
Идентификатор кодека : 55
Идентификатор кодека/Подсказка : MP3
Продолжительность : 42 м.
Вид битрейта : Постоянный
Битрейт : 128 Кбит/сек
Каналы : 2 канала
Частота : 48,0 КГц
Метод сжатия : С потерями
Размер потока : 39,0 Мбайт (7%)
Выравнивание : Соединение по промежуткам
Продолжительность промежутка : 42 мс. (1,00 видеокадр)
Время предзагрузки промежутка : 504 мс.

Скриншоты

[Профиль] [ЛС]
Кто просматривает тему:

Форум Тема Автор Размер
Программы [IM] Mobile Mail.Ru Agent / Мобильный Агент Mail.Ru v2.2.315 - 4.0.2178 [Android 2.1+, RUS] TorrentFilm 59 MB
Разная литература А. Гришин | Копирайтерское агентство. Как зарабатывать большие деньги чужими руками (2015) [FB2, RTF] достали все 25 MB
Отечественные мультфильмы Агент Г.С. (Владимир Пекарь) [1966, мультфильм для взрослых, SATRip] TorrentFilm 132 MB
Зарубежные сериалы Агент Картер / Agent Carter (Сезон 1-2, Серия 1-18 из 18) (Луис Д'Эспозито, Питер Лето) [2015-2016 , Фантастика, боевик, приключения, криминал, драма , WEB-DLRip-AVC 1080p] [MVO] [LostFilm ,... Враг Нароода 32.66 GB
Зарубежные сериалы Агент Картер / Agent Carter [S01] (2015) BDRip 720p | LostFilm, Jaskier, Невафильм Russian Mafia 23.96 GB
Зарубежные сериалы Агент Картер / Agent Carter [S02] (2016) WEB-DL 1080p | LostFilm достали все 17.45 GB
Фильмы (HD Rips | 720p, 1080p) Агент Коди Бэнкс / Agent Cody Banks (2003) BDRip 1080p | D, P, P2 Russian Mafia 10.6 GB
Фильмы (HD DVD, Blu-ray и BDRemux) Агент Коди Бэнкс 2: Пункт назначения - Лондон / Agent Cody Banks 2: Destination London (2004) DVD-9 | D, P, A sergej644 6.46 GB
Показать сообщения:    

Текущее время: Сегодня 01:08

Часовой пояс: GMT



Вы не можете начинать темы
Вы не можете отвечать на сообщения
Вы не можете редактировать свои сообщения
Вы не можете удалять свои сообщения
Вы не можете голосовать в опросах
Вы не можете прикреплять файлы к сообщениям
Вы не можете скачивать файлы