Агенты А.Н.К.Л. / The Man from U.N.C.L.E. (2015) HDRip | КПК | Лицензия

 
Автор Сообщение

достали все ®

Пол:

Стаж: 1 год 8 месяцев

Сообщений: 6527



Награды: 12 (Подробнее)

Mega Seeder 5 (Количество: 1) Mega Seeder 1 (Количество: 1) Mega Releaser 2 (Количество: 1)
Торрент-статистика

Создавать темы 04-Дек-2015 12:37

[Цитировать]

• Агенты А.Н.К.Л. / The Man from U.N.C.L.E. • Страна: США, Великобритания
Производство: Davis Entertainment, RatPac-Dune Entertainment, Warner Bros. Pictures, Wigram Productions
Год выпуска: 2015
Жанр: Боевик, комедия, приключения
Режиссёр: Гай Ричи
В ролях: Генри Кавилл, Арми Хаммер, Алисия Викандер, Элизабет Дебики, Хью Грант, Лука Кальвани, Сильвестр Грот, Джаред Харрис, Кристиан Беркель, Миша Кузнецов, Гай Уильямс, Марианна Ди Мартино, Джулиан Майкл Деустер, Андреа Каглиши, Риккардо Калваниз
Перевод: Профессиональный (полное дублирование)
Релиз от: RG Virtus
Автор рипа: ProT1gR
Описание: Наполеон Соло — агент ЦРУ, на счету которого огромное количество успешно проведенных операций. Он считается одним из лучших секретных агентов во всем мире, и с ним может сравниться только один человек — самый молодой и перспективный агент КГБ, Илья Курякин. Их противостояние переросло в настоящую войну, в которой никто не собирается уступать. Однако обстоятельства складываются так, что непримиримые враги вынуждены стать напарниками. Это происходит после того как спецслужбы двух стран обнаруживают международную преступную организацию, которой удалось создать ядерную бомбу…

Качество: HDRip
Продолжительность: 01:56:29
Формат: MP4
Видео кодек: H.264
Аудио кодек: AAC-LC
Свойства видео: 640x264 (2:42:1), 23.976 fps, 600 kbps (0.148 bit/pixel)
Свойства аудио: 48.0 KHz, 2 ch, 128 kbps

MediaInfo

General
Complete name : The.Man.From.U.N.C.L.E.2015.HDRip.mp4
Format : MPEG-4
Format profile : Base Media
Codec ID : isom
File size : 610 MiB
Duration : 1h 56mn
Overall bit rate mode : Variable
Overall bit rate : 732 Kbps
Encoded date : UTC 2015-12-04 04:57:43
Tagged date : UTC 2015-12-04 04:57:43
Video
ID : 1
Format : AVC
Format/Info : Advanced Video Codec
Format profile : High@L4.1
Format settings, CABAC : Yes
Format settings, ReFrames : 9 frames
Codec ID : avc1
Codec ID/Info : Advanced Video Coding
Duration : 1h 56mn
Bit rate : 600 Kbps
Maximum bit rate : 2 456 Kbps
Width : 640 pixels
Height : 264 pixels
Display aspect ratio : 2.40:1
Frame rate mode : Constant
Frame rate : 23.976 fps
Color space : YUV
Chroma subsampling : 4:2:0
Bit depth : 8 bits
Scan type : Progressive
Bits/(Pixel*Frame) : 0.148
Stream size : 500 MiB (82%)
Title : 264@GPAC0.5.2-DEV-rev248-g39d5978-master
Writing library : x264 core 146 r2538 121396c
Encoding settings : cabac=1 / ref=9 / deblock=1:-3:-3 / analyse=0x3:0x113 / me=umh / subme=11 / psy=1 / psy_rd=1.00:0.00 / mixed_ref=1 / me_range=32 / chroma_me=1 / trellis=2 / 8x8dct=1 / cqm=0 / deadzone=21,11 / fast_pskip=0 / chroma_qp_offset=-2 / threads=6 / lookahead_threads=1 / sliced_threads=0 / nr=0 / decimate=0 / interlaced=0 / bluray_compat=0 / constrained_intra=0 / bframes=9 / b_pyramid=2 / b_adapt=2 / b_bias=0 / direct=3 / weightb=1 / open_gop=0 / weightp=2 / keyint=240 / keyint_min=23 / scenecut=40 / intra_refresh=0 / rc=2pass / mbtree=0 / bitrate=600 / ratetol=1.0 / qcomp=0.60 / qpmin=0 / qpmax=69 / qpstep=4 / cplxblur=20.0 / qblur=0.5 / ip_ratio=1.40 / pb_ratio=1.30 / aq=1:1.00
Encoded date : UTC 2015-12-04 04:57:43
Tagged date : UTC 2015-12-04 04:58:06
Audio
ID : 2
Format : AAC
Format/Info : Advanced Audio Codec
Format profile : LC
Codec ID : 40
Duration : 1h 56mn
Bit rate mode : Variable
Bit rate : 128 Kbps
Maximum bit rate : 202 Kbps
Channel(s) : 2 channels
Channel positions : Front: L R
Sampling rate : 48.0 KHz
Compression mode : Lossy
Stream size : 107 MiB (17%)
Encoded date : UTC 2015-12-04 01:53:05
Tagged date : UTC 2015-12-04 04:58:06

Скриншоты

[Профиль] [ЛС]
Кто просматривает тему:

Форум Тема Автор Размер
Программы [IM] Mobile Mail.Ru Agent / Мобильный Агент Mail.Ru v2.2.315 - 4.0.2178 [Android 2.1+, RUS] TorrentFilm 59 MB
Разная литература А. Гришин | Копирайтерское агентство. Как зарабатывать большие деньги чужими руками (2015) [FB2, RTF] достали все 25 MB
Отечественные мультфильмы Агент Г.С. (Владимир Пекарь) [1966, мультфильм для взрослых, SATRip] TorrentFilm 132 MB
Зарубежные сериалы Агент Картер / Agent Carter (Сезон 1-2, Серия 1-18 из 18) (Луис Д'Эспозито, Питер Лето) [2015-2016 , Фантастика, боевик, приключения, криминал, драма , WEB-DLRip-AVC 1080p] [MVO] [LostFilm ,... Враг Нароода 32.66 GB
Зарубежные сериалы Агент Картер / Agent Carter [S01] (2015) BDRip 720p | LostFilm, Jaskier, Невафильм Russian Mafia 23.96 GB
Зарубежные сериалы Агент Картер / Agent Carter [S01] (2015) WEB-DLRip | Невафильм достали все 4.32 GB
Зарубежные сериалы Агент Картер / Agent Carter [S02] (2016) WEB-DL 1080p | LostFilm достали все 17.45 GB
Фильмы (HD Rips | 720p, 1080p) Агент Коди Бэнкс / Agent Cody Banks (2003) BDRip 1080p | D, P, P2 Russian Mafia 10.6 GB
Показать сообщения:    

Текущее время: Сегодня 20:05

Часовой пояс: GMT



Вы не можете начинать темы
Вы не можете отвечать на сообщения
Вы не можете редактировать свои сообщения
Вы не можете удалять свои сообщения
Вы не можете голосовать в опросах
Вы не можете прикреплять файлы к сообщениям
Вы не можете скачивать файлы