Агенты А.Н.К.Л. / The Man from U.N.C.L.E. (2015) BDRemux 1080p | D, A | Лицензия

 
Автор Сообщение

BOSS ®

Пол:

Стаж: 2 года 1 месяц

Сообщений: 3735

Откуда: ODESSA



Награды: 20 (Подробнее)

Top Seeder 2 (Количество: 1) Mega Seeder 3 (Количество: 1) Mega Releaser 1 (Количество: 1)
Торрент-статистика

Создавать темы 03-Дек-2015 05:46

[Цитировать]

Информация о фильме
Название: Агенты А.Н.К.Л.
Оригинальное название: The Man from U.N.C.L.E.
Год выпуска: 2015
Жанр: Боевик, комедия, приключения,
Выпущено: США, Davis Entertainment, Warner Bros. Pictures
Режиссер: Гай Ричи
В ролях: Генри Кавилл, Арми Хаммер, Алисия Викандер, Элизабет Дебики, Хью Грант, Лука Кальвани, Сильвестр Грот, Джаред Харрис, Кристиан Беркель, Миша Кузнецов, Марианна Ди Мартино, Джулиан Майкл Деустер, Андреа Каглиши, Риккардо Калваниз, Питер Старк, Дэвид Менкин, Пабло Скола, Чезаре Таурази, Риккардо Фламмини
О фильме: Наполеон Соло — агент ЦРУ, на счету которого огромное количество успешно проведенных операций. Он считается одним из лучших секретных агентов во всем мире и с ним может сравниться только один человек — самый молодой и перспективный агент КГБ, Илья Курякин. Их противостояние переросло в настоящую войну в которой никто не собирается уступать. Однако обстоятельства складываются так, что непримиримые враги вынуждены стать напарниками. Это происходит после того как спецслужбы двух стран обнаруживают международную преступную организацию, которой удалось создать ядерную бомбу…
Файл
Качество: Blu-Ray Remux (1080p)
Видео: MPEG-4 AVC, 25939 Кбит/с, 1920x1080
Aудио#1: Russian: 48 kHz, AC3, 3/2 (L,C,R,l,r) + LFE ch, ~448.00 kbps avg |Дубляж, BD EUR|
Aудио#2: Russian: 48 kHz/24-bit, DTS-HD MA 7.1, ~4248.00 kbps avg |Одноголосый закадровый, Д. Есарев| - Перевод доступен благодаря mvch73, DREADG, mihaildns, timur, Skazhutin, shurikkein, Pr0peLLer, nortonn, napaHouk, -ALCASTER-
Aудио#3: Russian: 48 kHz/24-bit, DTS-HD MA 7.1, ~4337.00 kbps avg |Одноголосый закадровый, А. Матвеев| - Заказ - будулайроманов, Работа со звуком - Переводман
Aудио#4: English: 48 kHz/24-bit, DTS-HD MA 7.1, ~4046.00 kbps avg
Aудио#5: English: 48 kHz, AC3, 3/2 (L,C,R,l,r) + LFE ch, ~448.00 kbps avg |Deive|
Продолжительность: 01:56:30
Перевод: Дублированный, авторский
Субтитры: Русские, английские

MI

Общее
Уникальный идентификатор : 224934173110394890139586573894013294058 (0xA938BEF6A3DD362798CDDEFBE0BA15EA)
Полное имя : G:THE_MAN_FROM_U.N.C.L.E._2015_REMUX.bog3417.mkv
Формат : Matroska
Версия формата : Version 2
Размер файла : 33,4 Гбайт
Продолжительность : 1 ч. 56 м.
Режим общего битрейта : Переменный
Общий поток : 41,0 Мбит/сек
Дата кодирования : UTC 2015-12-02 21:33:23
Программа кодирования : mkvmerge v7.9.0 ('Birds') 64bit
Библиотека кодирования : libebml v1.3.1 + libmatroska v1.4.2
Видео
Идентификатор : 1
Формат : AVC
Формат/Информация : Advanced Video Codec
Профиль формата : High@L4.1
Параметр CABAC формата : Да
Параметр ReFrames формата : 2 кадра
Параметр GOP формата : M=1, N=10
Идентификатор кодека : V_MPEG4/ISO/AVC
Продолжительность : 1 ч. 56 м.
Вид битрейта : Переменный
Ширина : 1920 пикселей
Высота : 1080 пикселей
Соотношение сторон : 16:9
Режим частоты кадров : Постоянный
Частота кадров : 23,976 кадра/сек
Цветовое пространство : YUV
Субдискретизация насыщенности : 4:2:0
Битовая глубина : 8 бит
Тип развёртки : Прогрессивная
Default : Да
Forced : Нет
Аудио #1
Идентификатор : 2
Формат : AC-3
Формат/Информация : Audio Coding 3
Расширение режима : CM (complete main)
Параметр Endianness формата : Big
Идентификатор кодека : A_AC3
Продолжительность : 1 ч. 56 м.
Вид битрейта : Постоянный
Битрейт : 448 Кбит/сек
Каналы : 6 каналов
Расположение каналов : Front: L C R, Side: L R, LFE
Частота : 48,0 КГц
Метод сжатия : С потерями
Размер потока : 373 Мбайт (1%)
Язык : Russian
Default : Да
Forced : Нет
Аудио #2
Идентификатор : 3
Формат : DTS
Формат/Информация : Digital Theater Systems
Профиль формата : MA / Core
Режим : 16
Параметр Endianness формата : Big
Идентификатор кодека : A_DTS
Продолжительность : 1 ч. 56 м.
Вид битрейта : Переменный
Битрейт : Неизвестно / 1509 Кбит/сек
Каналы : 8 каналов / 6 каналов
Расположение каналов : Front: L C R, Side: L R, Back: L R, LFE / Front: L C R, Side: L R, LFE
Частота : 48,0 КГц
Битовая глубина : 24 бит
Метод сжатия : Без потерь / Lossy
Заголовок : Есарев
Язык : Russian
Default : Нет
Forced : Нет
Аудио #3
Идентификатор : 4
Формат : DTS
Формат/Информация : Digital Theater Systems
Профиль формата : MA / Core
Режим : 16
Параметр Endianness формата : Big
Идентификатор кодека : A_DTS
Продолжительность : 1 ч. 56 м.
Вид битрейта : Переменный
Битрейт : Неизвестно / 1509 Кбит/сек
Каналы : 8 каналов / 6 каналов
Расположение каналов : Front: L C R, Side: L R, Back: L R, LFE / Front: L C R, Side: L R, LFE
Частота : 48,0 КГц
Битовая глубина : 24 бит
Метод сжатия : Без потерь / Lossy
Заголовок : Матвеев
Язык : Russian
Default : Нет
Forced : Нет
Аудио #4
Идентификатор : 5
Формат : DTS
Формат/Информация : Digital Theater Systems
Профиль формата : MA / Core
Режим : 16
Параметр Endianness формата : Big
Идентификатор кодека : A_DTS
Продолжительность : 1 ч. 56 м.
Вид битрейта : Переменный
Битрейт : Неизвестно / 1509 Кбит/сек
Каналы : 8 каналов / 6 каналов
Расположение каналов : Front: L C R, Side: L R, Back: L R, LFE / Front: L C R, Side: L R, LFE
Частота : 48,0 КГц
Битовая глубина : 24 бит
Метод сжатия : Без потерь / Lossy
Язык : English
Default : Нет
Forced : Нет
Аудио #5
Идентификатор : 6
Формат : AC-3
Формат/Информация : Audio Coding 3
Расширение режима : CM (complete main)
Параметр Endianness формата : Big
Идентификатор кодека : A_AC3
Продолжительность : 1 ч. 56 м.
Вид битрейта : Постоянный
Битрейт : 448 Кбит/сек
Каналы : 6 каналов
Расположение каналов : Front: L C R, Side: L R, LFE
Частота : 48,0 КГц
Метод сжатия : С потерями
Размер потока : 373 Мбайт (1%)
Язык : English
Default : Нет
Forced : Нет
Текст #1
Идентификатор : 7
Формат : UTF-8
Идентификатор кодека : S_TEXT/UTF8
Идентификатор кодека/Информация : UTF-8 Plain Text
Язык : Russian
Default : Да
Forced : Нет
Текст #2
Идентификатор : 8
Формат : UTF-8
Идентификатор кодека : S_TEXT/UTF8
Идентификатор кодека/Информация : UTF-8 Plain Text
Язык : Russian
Default : Нет
Forced : Нет
Текст #3
Идентификатор : 9
Формат : UTF-8
Идентификатор кодека : S_TEXT/UTF8
Идентификатор кодека/Информация : UTF-8 Plain Text
Язык : English
Default : Нет
Forced : Нет
Меню
00:00:00.000 : en:Chapter 1
00:15:19.083 : en:Chapter 2
00:23:11.681 : en:Chapter 3
00:32:09.301 : en:Chapter 4
00:40:36.056 : en:Chapter 5
00:49:07.568 : en:Chapter 6
00:59:23.559 : en:Chapter 7
01:08:52.837 : en:Chapter 8
01:20:28.113 : en:Chapter 9
01:29:47.671 : en:Chapter 10
01:43:21.360 : en:Chapter 11
01:49:23.430 : en:Chapter 12

Скриншоты



[Профиль] [ЛС]
Кто просматривает тему:

Форум Тема Автор Размер
Программы [IM] Mobile Mail.Ru Agent / Мобильный Агент Mail.Ru v2.2.315 - 4.0.2178 [Android 2.1+, RUS] TorrentFilm 59 MB
Разная литература А. Гришин | Копирайтерское агентство. Как зарабатывать большие деньги чужими руками (2015) [FB2, RTF] достали все 25 MB
Отечественные мультфильмы Агент Г.С. (Владимир Пекарь) [1966, мультфильм для взрослых, SATRip] TorrentFilm 132 MB
Зарубежные сериалы Агент Картер / Agent Carter (Сезон 1-2, Серия 1-18 из 18) (Луис Д'Эспозито, Питер Лето) [2015-2016 , Фантастика, боевик, приключения, криминал, драма , WEB-DLRip-AVC 1080p] [MVO] [LostFilm ,... Враг Нароода 32.66 GB
Зарубежные сериалы Агент Картер / Agent Carter [S01] (2015) BDRip 720p | LostFilm, Jaskier, Невафильм Russian Mafia 23.96 GB
Зарубежные сериалы Агент Картер / Agent Carter [S01] (2015) WEB-DLRip | Невафильм достали все 4.32 GB
Зарубежные сериалы Агент Картер / Agent Carter [S02] (2016) WEB-DL 1080p | LostFilm достали все 17.45 GB
Фильмы (HD Rips | 720p, 1080p) Агент Коди Бэнкс / Agent Cody Banks (2003) BDRip 1080p | D, P, P2 Russian Mafia 10.6 GB
Показать сообщения:    

Текущее время: Сегодня 18:37

Часовой пояс: GMT



Вы не можете начинать темы
Вы не можете отвечать на сообщения
Вы не можете редактировать свои сообщения
Вы не можете удалять свои сообщения
Вы не можете голосовать в опросах
Вы не можете прикреплять файлы к сообщениям
Вы не можете скачивать файлы