Агенты А.Н.К.Л. / The Man from U.N.C.L.E. (2015) BDRip 1080p | iTunes Russia

 
Автор Сообщение

Russian Mafia ®

Пол:

Стаж: 1 год 8 месяцев

Сообщений: 4252



Награды: 10 (Подробнее)

Mega Seeder 2 (Количество: 1) Top Releaser 5 (Количество: 1) За внесенный вклад в развитие сайта (Количество: 1)
Торрент-статистика

Создавать темы 08-Ноя-2015 08:33

[Цитировать]

Информация о фильме
Название: Агенты А.Н.К.Л.
Оригинальное название: The Man from U.N.C.L.E.
Год выпуска: 2015
Жанр: Боевик, комедия, приключения,
Выпущено: США, Davis Entertainment, Warner Bros. Pictures
Режиссер: Гай Ричи
В ролях: Генри Кавилл, Арми Хаммер, Алисия Викандер, Элизабет Дебики, Хью Грант, Лука Кальвани, Сильвестр Грот, Джаред Харрис, Кристиан Беркель, Миша Кузнецов, Марианна Ди Мартино, Джулиан Майкл Деустер, Андреа Каглиши, Риккардо Калваниз, Питер Старк, Дэвид Менкин, Пабло Скола, Чезаре Таурази, Риккардо Фламмини
О фильме: Наполеон Соло — агент ЦРУ, на счету которого огромное количество успешно проведенных операций. Он считается одним из лучших секретных агентов во всем мире и с ним может сравниться только один человек — самый молодой и перспективный агент КГБ, Илья Курякин. Их противостояние переросло в настоящую войну в которой никто не собирается уступать. Однако обстоятельства складываются так, что непримиримые враги вынуждены стать напарниками. Это происходит после того как спецслужбы двух стран обнаруживают международную преступную организацию, которой удалось создать ядерную бомбу…

Файл
Качество: BDRip (1080p)
Видео: MPEG-4 AVC, 8724 Кбит/с, 1920x800, 23.976 кадр/с
Аудио: Русский (AC3, 6 ch, 384 Кбит/с), английский (DTS, 6 ch, 1509 Кбит/с)
Размер: 8.64 ГБ
Продолжительность: 01:56:30
Перевод: Дублированный
Субтитры: Русские, английские
Сохранены оригинальные чаптеры как на Blu-Ray.
Озвучивание - Дублированное (iTunes Russia)

x264

x264 [info]: frame I:1485 Avg QP:14.78 size:183696
x264 [info]: frame P:38612 Avg QP:17.18 size: 81951
x264 [info]: frame B:127489 Avg QP:19.13 size: 32848
x264 [info]: consecutive B-frames: 3.5% 4.0% 7.6% 19.7% 18.6% 31.3% 8.4% 4.2% 2.0% 0.7%
x264 [info]: mb I I16..4: 17.6% 51.4% 31.0%
x264 [info]: mb P I16..4: 3.5% 28.2% 2.6% P16..4: 26.7% 30.2% 6.3% 1.6% 0.1% skip: 0.9%
x264 [info]: mb B I16..4: 0.4% 3.1% 0.3% B16..8: 38.2% 21.6% 3.1% direct: 8.4% skip:24.8% L0:45.6% L1:42.3% BI:12.0%
x264 [info]: 8x8 transform intra:79.8% inter:48.4%
x264 [info]: direct mvs spatial:98.5% temporal:1.5%
x264 [info]: coded y,uvDC,uvAC intra: 90.3% 83.4% 65.2% inter: 33.7% 30.5% 11.3%
x264 [info]: i16 v,h,dc,p: 17% 12% 18% 53%
x264 [info]: i8 v,h,dc,ddl,ddr,vr,hd,vl,hu: 9% 8% 16% 9% 11% 11% 11% 11% 13%
x264 [info]: i4 v,h,dc,ddl,ddr,vr,hd,vl,hu: 12% 14% 12% 7% 11% 10% 12% 8% 13%
x264 [info]: i8c dc,h,v,p: 48% 23% 18% 12%
x264 [info]: Weighted P-Frames: Y:12.6% UV:8.3%
x264 [info]: ref P L0: 45.8% 6.9% 25.9% 10.1% 9.6% 1.5% 0.1%
x264 [info]: ref B L0: 70.2% 21.2% 6.7% 1.8%
x264 [info]: ref B L1: 90.6% 9.4%
x264 [info]: kb/s:8726.89

Инфо-файл

Общее
Уникальный идентификатор : 218074106624049716516764978974254379268 (0xA40F8B9281E3B6ED95221D4ED3233104)
Полное имя : D:ЗагрузкиThe.Man.From.U.N.C.L.E.2015..x264.BDRip.(1080p).ExKinoRay.mkv
Формат : Matroska
Версия формата : Version 2
Размер файла : 8,64 Гбайт
Продолжительность : 1 ч. 56 м.
Общий поток : 10,6 Мбит/сек
Название фильма : Агенты А.Н.К.Л.2015.Rip by: ollan
Дата кодирования : UTC 2015-11-08 07:56:41
Программа кодирования : mkvmerge v5.6.0 ('Kenya Kane') built on May 27 2012 16:44:04
Библиотека кодирования : libebml v1.2.3 + libmatroska v1.3.0
Видео
Идентификатор : 1
Формат : AVC
Формат/Информация : Advanced Video Codec
Профиль формата : High@L4.1
Параметр CABAC формата : Да
Параметр ReFrames формата : 5 кадров
Идентификатор кодека : V_MPEG4/ISO/AVC
Продолжительность : 1 ч. 56 м.
Битрейт : 8724 Кбит/сек
Ширина : 1920 пикселей
Высота : 800 пикселей
Соотношение сторон : 2,40:1
Режим частоты кадров : Постоянный
Частота кадров : 23,976 кадра/сек
Цветовое пространство : YUV
Субдискретизация насыщенности : 4:2:0
Битовая глубина : 8 бит
Тип развёртки : Прогрессивная
Бит/(Пиксели*Кадры) : 0.237
Размер потока : 6,93 Гбайт (80%)
Библиотека кодирования : x264 core 125 r2200 999b753
Настройки программы : cabac=1 / ref=5 / deblock=1:-3:-3 / analyse=0x3:0x133 / me=umh / subme=11 / psy=1 / psy_rd=1.00:0.10 / mixed_ref=1 / me_range=48 / chroma_me=1 / trellis=2 / 8x8dct=1 / cqm=0 / deadzone=21,11 / fast_pskip=0 / chroma_qp_offset=-3 / threads=12 / lookahead_threads=2 / sliced_threads=0 / nr=0 / decimate=0 / interlaced=0 / bluray_compat=0 / constrained_intra=0 / bframes=9 / b_pyramid=2 / b_adapt=2 / b_bias=0 / direct=3 / weightb=1 / open_gop=0 / weightp=2 / keyint=240 / keyint_min=23 / scenecut=40 / intra_refresh=0 / rc=2pass / mbtree=0 / bitrate=8724 / ratetol=1.0 / qcomp=0.60 / qpmin=0 / qpmax=69 / qpstep=4 / cplxblur=20.0 / qblur=0.5 / ip_ratio=1.40 / pb_ratio=1.30 / aq=1:1.00
Язык : English
Default : Да
Forced : Нет
Аудио #1
Идентификатор : 2
Формат : AC-3
Формат/Информация : Audio Coding 3
Расширение режима : CM (complete main)
Параметр Endianness формата : Big
Идентификатор кодека : A_AC3
Продолжительность : 1 ч. 56 м.
Вид битрейта : Постоянный
Битрейт : 384 Кбит/сек
Каналы : 6 каналов
Расположение каналов : Front: L C R, Side: L R, LFE
Частота : 48,0 КГц
Битовая глубина : 16 бит
Метод сжатия : С потерями
Размер потока : 320 Мбайт (4%)
Заголовок : Дублированный (iTunes Russia)
Язык : Russian
Default : Да
Forced : Нет
Аудио #2
Идентификатор : 3
Формат : DTS
Формат/Информация : Digital Theater Systems
Режим : 16
Параметр Endianness формата : Big
Идентификатор кодека : A_DTS
Продолжительность : 1 ч. 56 м.
Вид битрейта : Постоянный
Битрейт : 1509 Кбит/сек
Каналы : 6 каналов
Расположение каналов : Front: L C R, Side: L R, LFE
Частота : 48,0 КГц
Битовая глубина : 24 бит
Метод сжатия : С потерями
Размер потока : 1,23 Гбайт (14%)
Язык : English
Default : Нет
Forced : Нет
Текст #1
Идентификатор : 4
Формат : UTF-8
Идентификатор кодека : S_TEXT/UTF8
Идентификатор кодека/Информация : UTF-8 Plain Text
Заголовок : Forced
Язык : Russian
Default : Да
Forced : Нет
Текст #2
Идентификатор : 5
Формат : UTF-8
Идентификатор кодека : S_TEXT/UTF8
Идентификатор кодека/Информация : UTF-8 Plain Text
Заголовок : Full
Язык : Russian
Default : Нет
Forced : Нет
Текст #3
Идентификатор : 6
Формат : UTF-8
Идентификатор кодека : S_TEXT/UTF8
Идентификатор кодека/Информация : UTF-8 Plain Text
Заголовок : SDH
Язык : English
Default : Нет
Forced : Нет
Меню
00:00:00.000 : en:Chapter 01
00:15:19.083 : en:Chapter 02
00:23:11.681 : en:Chapter 03
00:32:09.301 : en:Chapter 04
00:40:36.056 : en:Chapter 05
00:49:07.568 : en:Chapter 06
00:59:23.559 : en:Chapter 07
01:08:52.837 : en:Chapter 08
01:20:28.113 : en:Chapter 09
01:29:47.671 : en:Chapter 10
01:43:21.360 : en:Chapter 11
01:49:23.430 : en:Chapter 12
01:56:29.481 : en:Chapter 13

Скриншоты



[Профиль] [ЛС]
Кто просматривает тему:

Форум Тема Автор Размер
Программы [IM] Mobile Mail.Ru Agent / Мобильный Агент Mail.Ru v2.2.315 - 4.0.2178 [Android 2.1+, RUS] TorrentFilm 59 MB
Разная литература А. Гришин | Копирайтерское агентство. Как зарабатывать большие деньги чужими руками (2015) [FB2, RTF] достали все 25 MB
Отечественные мультфильмы Агент Г.С. (Владимир Пекарь) [1966, мультфильм для взрослых, SATRip] TorrentFilm 132 MB
Зарубежные сериалы Агент Картер / Agent Carter (Сезон 1-2, Серия 1-18 из 18) (Луис Д'Эспозито, Питер Лето) [2015-2016 , Фантастика, боевик, приключения, криминал, драма , WEB-DLRip-AVC 1080p] [MVO] [LostFilm ,... Враг Нароода 32.66 GB
Зарубежные сериалы Агент Картер / Agent Carter [S01] (2015) BDRip 720p | LostFilm, Jaskier, Невафильм Russian Mafia 23.96 GB
Зарубежные сериалы Агент Картер / Agent Carter [S01] (2015) WEB-DLRip | Невафильм достали все 4.32 GB
Зарубежные сериалы Агент Картер / Agent Carter [S02] (2016) WEB-DL 1080p | LostFilm достали все 17.45 GB
Фильмы (HD Rips | 720p, 1080p) Агент Коди Бэнкс / Agent Cody Banks (2003) BDRip 1080p | D, P, P2 Russian Mafia 10.6 GB
Показать сообщения:    

Текущее время: Сегодня 08:49

Часовой пояс: GMT



Вы не можете начинать темы
Вы не можете отвечать на сообщения
Вы не можете редактировать свои сообщения
Вы не можете удалять свои сообщения
Вы не можете голосовать в опросах
Вы не можете прикреплять файлы к сообщениям
Вы не можете скачивать файлы